<?xml version="1.0" standalone="no"?>
<!DOCTYPE svg PUBLIC "-//W3C//DTD SVG 1.1//EN" "http://www.w3.org/Graphics/SVG/1.1/DTD/svg11.dtd" >
<svg xmlns="http://www.w3.org/2000/svg">
<metadata>Generated by IcoMoon</metadata>
<defs>
<font id="coffeecup-icons" horiz-adv-x="512">
<font-face units-per-em="512" ascent="480" descent="-32" />
<missing-glyph horiz-adv-x="512" />
<glyph unicode="&#x20;" d="" horiz-adv-x="256" />
<glyph unicode="&#xe900;" d="M512 184.777l-256 198.714-256-198.714v81.019l256 198.713 256-198.714zM448 192v-192h-384v192l192 144z" />
<glyph unicode="&#xe901;" d="M512 184.778l-256 198.713-256-198.714v81.019l256 198.713 256-198.714zM448 192v-192h-128v128h-128v-128h-128v192l192 144z" />
<glyph unicode="&#xe902;" d="M256 464l-256-256 48-48 48 48v-208h128v96h64v-96h128v208l48-48 48 48-256 256zM256 256c-17.673 0-32 14.327-32 32s14.327 32 32 32c17.673 0 32-14.327 32-32s-14.327-32-32-32z" />
<glyph unicode="&#xe903;" d="M256 464l-256-256 48-48 48 48v-208h320v208l48-48 48 48-256 256zM256 256c-17.673 0-32 14.327-32 32s14.327 32 32 32c17.673 0 32-14.327 32-32s-14.327-32-32-32z" />
<glyph unicode="&#xe904;" d="M512 176l-96 96v144h-64v-80l-96 96-256-256v-16h64v-160h160v96h64v-96h160v160h64z" />
<glyph unicode="&#xe905;" d="M256 480l-256-192v-96l64 48v-240c0-17.6 14.399-32 32-32h320c17.6 0 32 14.4 32 32v240l64-48v96l-256 192zM416 0.058c-0.018-0.020-0.038-0.041-0.059-0.058h-159.941v160h-96v-160h-63.942c-0.020 0.017-0.041 0.038-0.058 0.058v263.942l160 120 160-120v-263.942zM288 256h64v-64h-64z" />
<glyph unicode="&#xe906;" d="M147.2 288l140.8 128h-144l-140.8-128zM0 256h128v-256h-128v256zM336 416l-176-160v-256h128v128h96v-128h128v256z" />
<glyph unicode="&#xe907;" d="M512 208l-256 256-256-256 48-48 48 48v-240h128v96h64v-96h128v240l48-48 48 48zM384 0h-64v96h-128v-96h-64v240l128 128 128-128v-240z" />
<glyph unicode="&#xe908;" d="M256 464l-256-256 48-48 48 48v-240h128v96h64v-96h128v240l48-48 48 48-256 256zM132 0h-4v240l4 4v-244zM148 0h-8v252l8 8v-260zM164 0h-8v268l8 8v-276zM180 0h-8v284l8 8v-292zM196 96h-4v-96h-4v300l8 8v-212zM212 96h-8v220l8 8v-228zM228 96h-8v236l8 8v-244zM244 96h-8v252l8 8v-260zM260 96h-8v268l4 4 4-4v-268zM276 96h-8v260l8-8v-252zM292 96h-8v244l8-8v-236zM308 96h-8v228l8-8v-220zM324 0h-4v96h-4v212l8-8v-300zM340 0h-8v292l8-8v-284zM356 0h-8v276l8-8v-268zM372 0h-8v260l8-8v-252zM384 0h-4v244l4-4v-240z" />
<glyph unicode="&#xe909;" d="M0-32h256v512h-256v-512zM160 416h64v-64h-64v64zM160 288h64v-64h-64v64zM160 160h64v-64h-64v64zM32 416h64v-64h-64v64zM32 288h64v-64h-64v64zM32 160h64v-64h-64v64zM288 320h224v-32h-224zM288-32h64v128h96v-128h64v288h-224z" />
<glyph unicode="&#xe90a;" d="M496 352h-16v48c0 8.836-7.163 16-16 16h-48v48c0 8.836-7.163 16-16 16s-16-7.164-16-16v-48h-48c-8.837 0-16-7.164-16-16v-48h-16c-8.837 0-16-7.164-16-16v-80h96c17.674 0 32-14.327 32-32v-224h-32v208c0 8.837-7.163 16-16 16h-192c-8.836 0-16-7.163-16-16v-208h-32v224c0 17.673 14.327 32 32 32h64v144c0 8.836-7.164 16-16 16h-192c-8.836 0-16-7.164-16-16v-416c0-8.837 7.164-16 16-16h480c8.837 0 16 7.163 16 16v352c0 8.836-7.163 16-16 16zM352 288h-32v32h32v-32zM160 384h32v-32h-32v32zM160 320h32v-32h-32v32zM96 384h32v-32h-32v32zM64 96h-32v32h32v-32zM64 160h-32v32h32v-32zM64 224h-32v32h32v-32zM64 288h-32v32h32v-32zM64 352h-32v32h32v-32zM96 320h32v-32h-32v32zM352 0h-160v192h160v-192zM416 288h-32v32h32v-32zM480 96h-32v64h32v-64zM480 192h-32v64h32v-64zM480 288h-32v32h32v-32zM224 160h32v-32h-32v32zM288 160h32v-32h-32v32zM224 96h32v-32h-32v32zM288 96h32v-32h-32v32z" />
<glyph unicode="&#xe90b;" d="M448 352v64h-448v-352c0-17.673 14.327-32 32-32h432c26.511 0 48 21.489 48 48v272h-64zM416 64h-384v320h384v-320zM64 320h320v-32h-320zM256 256h128v-32h-128zM256 192h128v-32h-128zM256 128h96v-32h-96zM64 256h160v-160h-160z" />
<glyph unicode="&#xe90c;" d="M336 288h64c8.837 0 16 7.164 16 16s-7.163 16-16 16h-64c-8.837 0-16-7.164-16-16s7.163-16 16-16zM336 352h64c8.837 0 16 7.164 16 16s-7.163 16-16 16h-64c-8.837 0-16-7.164-16-16s7.163-16 16-16zM336 224h64c8.837 0 16 7.164 16 16s-7.163 16-16 16h-64c-8.837 0-16-7.164-16-16s7.163-16 16-16zM112 96h288c8.837 0 16 7.163 16 16s-7.163 16-16 16h-288c-8.836 0-16-7.163-16-16s7.164-16 16-16zM112 160h288c8.837 0 16 7.163 16 16s-7.163 16-16 16h-288c-8.836 0-16-7.163-16-16s7.164-16 16-16zM464 480h-368c-20.427 0-36.41-5.657-47.508-16.815-11.053-11.114-16.602-27.018-16.492-47.185v-432.001c0-8.836 7.164-15.999 16-15.999h352c8.837 0 16 7.163 16 16v16h48c8.837 0 16 7.163 16 16v448c0 8.836-7.163 16-16 16zM448 32h-384.001l0.001 384.087c-0.062 11.425 2.354 19.678 7.182 24.532 4.87 4.898 13.221 7.381 24.818 7.381h352v-416zM272 416h-160c-8.8 0-16-7.2-16-16v-160c0-8.8 7.2-16 16-16h160c8.8 0 16 7.2 16 16v160c0 8.8-7.2 16-16 16zM256 256h-128v32c0 17.673 14.327 32 32 32h32c-17.673 0-32 14.327-32 32s14.327 32 32 32 32-14.327 32-32-14.327-32-32-32h32c17.673 0 32-14.327 32-32v-32z" />
<glyph unicode="&#xe90d;" d="M512 336v128l-496-496h128v32h16v-32h48v64h16v-64h48v32h16v-32h48v64h16v-64h48v32h16v-32h96v96h-32v16h32v48h-64v16h64v48h-32v16h32v48h-64v16h64v48h-32v16h32zM416 64h-176l176 176v-176zM304 480l-256-256-48-128 128 48 256 256c0 48-32 80-80 80zM112 192l-32 32 224 224 32-32-224-224z" />
<glyph unicode="&#xe90e;" d="M432 480c44.182 0 80-35.817 80-80 0-18.010-5.955-34.629-16-48l-32-32-112 112 32 32c13.371 10.045 29.989 16 48 16zM32 112l-32-144 144 32 296 296-112 112-296-296zM357.789 298.211l-224-224-27.578 27.578 224 224 27.578-27.578z" />
<glyph unicode="&#xe90f;" d="M366.229 478.229l-286.229-286.229-80-224 223.833 80 286.396 286.229c16 64-80 160-144 144zM144 128l-32 32 272 272 32-32-272-272z" />
<glyph unicode="&#xe910;" d="M381.119 480c-5.104 0-10.085-0.569-14.89-1.771l-286.229-286.229-80-224 223.833 80 286.396 286.229c14.799 59.196-66.221 145.771-129.11 145.771zM208.809 95.191l-81.696 81.696 240 240 81.767-81.766-240.071-239.93z" />
<glyph unicode="&#xe911;" d="M366.229 478.229l-286.229-286.229h48v-32h32v-32h32v-32h32v-47.834l286.229 286.063c16 64-80 160-144 144zM192 64h-32v32h-32v32h-32v32h-27.429l-68.571-192 192 68.622z" />
<glyph unicode="&#xe912;" d="M384 208v-176h-320v320h176l64 64h-256c-26.4 0-48-21.6-48-48v-352c0-26.4 21.6-48 48-48h352c26.4 0 48 21.6 48 48v256l-64-64zM432 480l-304-304v-80h80l304 304c0 48-32 80-80 80z" />
<glyph unicode="&#xe913;" d="M192 160l64 32 224 224-32 32-224-224-32-64zM144.65 46.451c-15.816 33.364-32.833 50.381-66.198 66.197l49.548 136.396 64 38.956 192 192h-96l-192-192-96-320 320 96 192 192v96l-192-192-38.956-64z" />
<glyph unicode="&#xe914;" d="M384 208v-176h-320v320h176l64 64h-256c-26.4 0-48-21.6-48-48v-352c0-26.4 21.6-48 48-48h352c26.399 0 48 21.6 48 48v256l-64-64zM432 480l-304-304v-80h80l304 304c0 48-32 80-80 80zM208 160l-24 24 240 240 24-24-240-240z" />
<glyph unicode="&#xe915;" d="M479.844 340.301c-1.841 28.012-21.385 46.105-37.151 53.372-0.093 0.043-1.745 0.781-2.461 1.068l-100.578 40.23c-6.501 2.601-13.66 3.919-21.281 3.919-18.291 0-36.527-7.731-47.591-20.177 0 0-214.869-241.802-215.518-242.638-0.024-0.026-0.046-0.048-0.069-0.075-14.067-16-23.195-32-23.195-64v-32c0-24.018 17.468-49.819 39.769-58.74l94.538-37.832c14.594-5.688 38.905-18.692 68.594 7.783 2.134 1.723 4.242 3.742 6.317 6.076l2.402 2.703c0.003 0.003 0.006 0.006 0.009 0.010v0l211.068 237.453c14.19 15.96 25.303 45.191 25.303 66.547v32c0 0.85-0.152 4.251-0.156 4.301zM81.219 157.287l213.48 240.166c5.018 5.645 14.531 9.437 23.674 9.437 3.481 0 6.73-0.563 9.396-1.63l100.578-40.23c2.798-1.12 4.756-2.744 5.108-4.24 0.354-1.496-0.671-3.824-2.674-6.077l-213.48-240.166c-5.018-5.645-14.531-9.437-23.673-9.437-3.481 0-6.731 0.563-9.397 1.63l-100.577 40.23c-2.799 1.119-4.756 2.744-5.109 4.24s0.672 3.825 2.674 6.077zM64 80v32c0 6.241 2.41 6.241 3.439 6.241 0.856 0 2.302-0.17 4.33-0.981l100.577-40.23c10.287-4.116 19.654-17.952 19.654-29.030v-32c0-6.241-2.41-6.241-3.439-6.241-0.856 0-2.302 0.17-4.33 0.981l-100.577 40.23c-10.286 4.116-19.654 17.952-19.654 29.030zM448 304c0-13.564-8.207-35.15-17.219-45.287l-206.781-232.63v21.917c0 13.563 8.207 35.149 17.218 45.287l206.782 232.63v-21.917z" />
<glyph unicode="&#xe916;" d="M479.945 338.484c-0.021 0.561-0.097 1.768-0.101 1.817-1.841 28.012-21.385 46.105-37.151 53.372-0.093 0.043-1.745 0.781-2.461 1.068l-100.578 40.23c-6.501 2.601-13.66 3.919-21.281 3.919-18.291 0-36.527-7.731-47.591-20.177l-213.48-240.166c-0.718-0.808-1.389-1.636-2.038-2.472-0.024-0.026-0.046-0.048-0.069-0.075-14.067-16-23.195-32-23.195-64v-32c0-24.018 17.468-49.819 39.769-58.74l94.538-37.832c14.594-5.688 38.905-18.692 68.594 7.783 2.134 1.723 4.242 3.742 6.317 6.076l2.402 2.703c0.003 0.003 0.006 0.006 0.009 0.010l211.068 237.453c14.19 15.96 25.303 45.191 25.303 66.547v32c0 0.85-0.021 1.673-0.055 2.484zM294.698 397.453c5.018 5.645 14.531 9.437 23.674 9.437 3.481 0 6.73-0.563 9.396-1.63l100.578-40.23c2.798-1.12 4.756-2.744 5.108-4.24 0.354-1.496-0.671-3.824-2.674-6.077l-125.26-140.921-128.416 51.367 117.594 132.294zM448 304c0-13.564-8.207-35.15-17.219-45.287l-110.781-124.63v47.834l128 144v-21.917z" />
<glyph unicode="&#xe917;" d="M479.844 340.301c-1.841 28.012-21.385 46.105-37.151 53.372-0.093 0.043-1.745 0.781-2.461 1.068l-100.578 40.23c-6.501 2.601-13.66 3.919-21.281 3.919-18.291 0-36.527-7.731-47.591-20.177 0 0-214.869-241.802-215.518-242.638-0.024-0.026-0.046-0.048-0.069-0.075-14.067-16-23.195-32-23.195-64v-32c0-24.018 17.468-49.819 39.769-58.74l94.538-37.832c14.594-5.688 38.905-18.692 68.594 7.783 2.134 1.723 4.242 3.742 6.317 6.076l2.402 2.703c0.003 0.003 0.006 0.006 0.009 0.010v0l211.068 237.453c14.19 15.96 25.303 45.191 25.303 66.547v32c0 0.85-0.152 4.251-0.156 4.301zM81.219 157.287l213.48 240.166c5.018 5.645 14.531 9.437 23.674 9.437 3.481 0 6.73-0.563 9.396-1.63l100.578-40.23c2.798-1.12 4.756-2.744 5.108-4.24 0.354-1.496-0.671-3.824-2.674-6.077l-213.48-240.166c-5.018-5.645-14.531-9.437-23.673-9.437-3.481 0-6.731 0.563-9.397 1.63l-100.577 40.23c-2.799 1.119-4.756 2.744-5.109 4.24s0.672 3.825 2.674 6.077z" />
<glyph unicode="&#xe918;" d="M0-32c64 192 231.5 512 512 512-131.5-105.5-192-352-288-352s-96 0-96 0l-96-160h-32z" />
<glyph unicode="&#xe919;" d="M0-32h32l96 160c0 0 0 0 96 0s156.5 246.5 288 352c-280.5 0-448-320-512-512zM196 192h-36c0 0 88.5 160 224 224 0 0-121.5-107.5-188-224z" />
<glyph unicode="&#xe91a;" d="M509.249 472.97c-2.976 4.396-7.939 7.030-13.249 7.030-69.644 0-135.344-11.182-195.275-33.234-60.337-22.202-113.417-54.9-157.766-97.186-93.525-89.175-142.959-221.58-142.959-381.58h48c0 29.573 23.408 128 64 128 24.872 0 73.932 2.445 123.060 18.821 52.829 17.609 91.406 46.189 114.66 84.947 2.497 4.161 2.97 9.23 1.286 13.782s-5.342 8.093-9.945 9.628c-0.635 0.212-10.769 3.525-28.87 5.802 51.249 22.988 108.077 56.368 133.529 98.788 2.608 4.347 3.002 9.672 1.062 14.354s-5.984 8.17-10.901 9.399c-0.858 0.215-15.306 3.772-37.213 5.939 59.959 30.54 97.699 64.374 112.188 100.596 1.971 4.931 1.37 10.518-1.607 14.914zM381.26 384.519c-42.299-21.2-81.472-33.078-81.857-33.194-8.325-2.498-13.134-11.185-10.83-19.565 2.303-8.381 10.878-13.386 19.309-11.282 17.606 4.402 37.035 6.634 57.749 6.634 14.291 0 27.214-1.078 37.55-2.364-22.135-23.333-58.613-46.5-107.242-67.934-48.382-21.325-91.719-33.26-92.147-33.376-8.318-2.269-13.343-10.721-11.362-19.112 1.98-8.393 10.255-13.701 18.709-12.014 22.562 4.513 44.634 6.801 65.603 6.801 12.631 0 23.278-0.844 31.702-1.913-55.497-63.86-162.626-69.2-196.444-69.2-37.941 0-61.193-32.657-74.752-63.901 14.328 105.915 57.788 195.572 127.793 262.321 41.162 39.247 90.53 69.633 146.734 90.314 48.191 17.732 100.473 27.994 155.772 30.601-17.211-21.495-46.477-42.864-86.287-62.816z" />
<glyph unicode="&#xe91b;" d="M0-32c0 73.305 12.077 150.347 35.894 213.209 23.023 60.767 56.438 114.368 99.317 159.313 42.461 44.507 92.87 79.155 149.826 102.983 57.886 24.216 120.789 36.495 186.963 36.495 2.72 0 5.254-1.382 6.727-3.669s1.682-5.166 0.557-7.642c-16.696-36.732-59.243-70.78-126.457-101.199-9.54-4.318-18.995-8.29-28.131-11.913 6.24 0.221 12.579 0.332 19.016 0.332 37.629 0 64.325-3.831 65.443-3.994 2.686-0.391 4.988-2.117 6.119-4.584s0.933-5.338-0.524-7.627c-24.156-37.96-76.926-73.004-156.844-104.159-6.578-2.564-13.083-4.997-19.443-7.292 4.678 0.137 9.352 0.206 14.021 0.206 37.208 0 60.104-4.422 61.062-4.61 2.759-0.543 5.030-2.495 5.982-5.142s0.445-5.598-1.336-7.773c-72.945-89.155-122.782-114.934-222.192-114.934-22.639 0-40.257-19.644-52.364-58.386-9.601-30.722-11.636-69.614-11.636-69.614z" />
<glyph unicode="&#xe91c;" d="M464.001 287.997l-143.998 143.999 47.999 48 143.999-143.999-48-48zM312 392l112-112-72-184-288-128-20.687 20.688 172.403 172.401c2.643-0.707 5.418-1.089 8.284-1.089 17.673 0 32 14.327 32 32s-14.327 32-32 32-32-14.327-32-32c0-2.865 0.382-5.641 1.089-8.285l-172.402-172.403-20.687 20.688 128 288 184 72z" />
<glyph unicode="&#xe91d;" d="M560.001 287.997l-143.998 143.999 47.999 48 143.998-143.999-47.999-48zM408 392l112-112-72-184-288-128-20.688 20.688 172.403 172.401c2.643-0.707 5.418-1.089 8.284-1.089 17.673 0 32 14.327 32 32s-14.327 32-32 32-32-14.327-32-32c0-2.865 0.382-5.641 1.089-8.285l-172.401-172.403-20.687 20.688 128 288 184 72zM192 416h-64v64h-64v-64h-64v-64h64v-64h64v64h64z" horiz-adv-x="608" />
<glyph unicode="&#xe91e;" d="M560.001 287.997l-143.998 143.999 47.999 48 143.998-143.999-47.999-48zM408 392l112-112-72-184-288-128-20.688 20.688 172.403 172.401c2.643-0.707 5.418-1.089 8.284-1.089 17.673 0 32 14.327 32 32s-14.327 32-32 32-32-14.327-32-32c0-2.865 0.382-5.641 1.089-8.285l-172.401-172.403-20.687 20.688 128 288 184 72zM0 416h192v-64h-192v64z" horiz-adv-x="608" />
<glyph unicode="&#xe91f;" d="M509.085 334.055l-143.029 143.029c-4.667 4.667-10.822 3.617-13.678-2.333l-19.177-39.952 133.599-133.599 39.952 19.177c5.95 2.856 7 9.011 2.333 13.678zM307.692 412.308l-131.692-10.975c-8.75-1.083-16.040-2.949-18.545-14.376-0.003-0.012-0.006-0.021-0.009-0.033-35.711-171.535-157.446-338.924-157.446-338.924l28.687-28.687 135.993 135.995c-2.998 6.265-4.68 13.282-4.68 20.692 0 26.51 21.49 48 48 48s48-21.49 48-48-21.49-48-48-48c-7.41 0-14.426 1.682-20.692 4.68l-135.994-135.993 28.686-28.687c0 0 167.389 121.735 338.924 157.446 0.012 0.003 0.021 0.006 0.033 0.009 11.427 2.505 13.293 9.795 14.376 18.545l10.975 131.692-136.616 136.616z" />
<glyph unicode="&#xe920;" d="M384 416h-224l-16 64h256zM384 384h-224l-64-144 128-272h32v258.742c-18.641 6.591-32 24.36-32 45.258 0 26.509 21.49 48 48 48s48-21.491 48-48c0-20.897-13.359-38.667-32-45.258v-258.742h32l128 272-64 144z" />
<glyph unicode="&#xe921;" d="M325.926 401.778l26.074 78.222h-224l26.074-78.222-74.074-177.778 128-256h64l128 256-74.074 177.778zM307.603 448l-10.667-32h-113.872l-10.667 32h135.206zM256 7.555v187.187c18.641 6.591 32 24.359 32 45.258 0 26.51-21.49 48-48 48s-48-21.49-48-48c0-20.898 13.359-38.667 32-45.258v-187.188l-108.829 217.657 66.162 158.789h117.333l66.161-158.789-108.827-217.656z" />
<glyph unicode="&#xe922;" d="M266.027 357.974c-21.205-20.571-64.098-63.135-71.634-70.679-58.813-58.807-196.9-222.62-194.357-319.26 96.64-2.551 260.448 135.547 319.263 194.354 7.544 7.545 50.108 50.441 70.673 71.64l-123.945 123.945zM472.339 377.91l-9.022 9.007 48.683 40.222-52.86 52.861-40.222-48.686-9.018 9.039c-27.896 1.631-72.882-25.375-117.215-61.040l118.629-118.63c13.414 16.688 25.524 33.433 35.422 49.356 29.764-24.539 7.764-96.539-117.835-190.941l23.099-23.098c112 80 184.5 176 114.263 252.23 4.189 11.079 6.571 21.232 6.076 29.68z" />
<glyph unicode="&#xe923;" d="M503.238 374.369c-10.987 26.524-31.853 53.212-57.247 73.222-26.522 20.899-54.928 32.409-79.983 32.409-19.438 0-36.1-6.805-49.521-20.226l-229.485-229.482c-2.322-2.321-4.107-5.123-5.231-8.207l-80.411-212.61c-2.994-8.219-0.955-17.428 5.23-23.612l11.27-11.271c4.296-4.296 10.048-6.592 15.915-6.592 2.582 0 5.187 0.445 7.699 1.36l212.615 80.41c3.084 1.124 5.886 2.909 8.208 5.23l229.485 229.482c22.2 22.202 26.27 54.123 11.456 89.887zM239.828 96.172l-111.653 111.653 192.002 191.998 111.652-111.652-192.001-191.999z" />
<glyph unicode="&#xe924;" d="M503.238 374.369c-10.987 26.524-31.853 53.212-57.247 73.222-26.522 20.899-54.928 32.409-79.983 32.409-19.438 0-36.1-6.805-49.521-20.226l-229.485-229.482c-2.322-2.321-4.107-5.123-5.231-8.207l-80.411-212.61c-2.994-8.219-0.955-17.428 5.23-23.612l11.27-11.271c4.296-4.296 10.048-6.592 15.915-6.592 2.582 0 5.187 0.445 7.699 1.36l212.615 80.41c3.084 1.124 5.886 2.909 8.208 5.23l229.485 229.482c22.2 22.202 26.27 54.123 11.456 89.887zM239.828 96.172l-111.653 111.653 192.002 191.998 111.652-111.652-192.001-191.999zM276 4h236v8h-228zM260-12h252v8h-244zM244-28h268v8h-260zM308 36h204v8h-196zM292 20h220v8h-212zM324 52h188v8h-180z" />
<glyph unicode="&#xe925;" d="M192 480v-48c36.741 0 72.356-7.185 105.858-21.355 32.384-13.697 61.479-33.316 86.474-58.312s44.614-54.090 58.312-86.474c14.171-33.502 21.356-69.119 21.356-105.859h48c0 176.73-143.27 320-320 320zM192 384v-48c47.011 0 91.209-18.307 124.45-51.549 33.243-33.242 51.55-77.439 51.55-124.451h48c0 123.711-100.288 224-224 224zM240 288l-32-32-112-32-96-208 12.687-12.687 116.402 116.402c-0.706 2.643-1.089 5.42-1.089 8.285 0 17.673 14.327 32 32 32s32-14.327 32-32-14.327-32-32-32c-2.866 0-5.641 0.382-8.284 1.089l-116.402-116.402 12.686-12.687 208 96 32 112 32 32-80 80z" />
<glyph unicode="&#xe926;" d="M192 384v-48c47.011 0 91.209-18.307 124.45-51.549 33.243-33.242 51.55-77.439 51.55-124.451h48c0 123.711-100.288 224-224 224zM192 480v-48c36.741 0 72.356-7.185 105.858-21.355 32.384-13.697 61.479-33.316 86.474-58.312s44.614-54.090 58.312-86.474c14.171-33.502 21.356-69.119 21.356-105.859h48c0 176.73-143.27 320-320 320zM269.255 237.254c-24.994 24.995-65.518 24.994-90.51 0.001l-178.745-178.745v-90.51h90.511l178.744 178.744c24.993 24.992 24.994 65.516 0 90.51zM64 16l-32 32 160 160 32-32-160-160z" />
<glyph unicode="&#xe927;" d="M512 400c0 44.183-35.817 80-80 80-26.174 0-49.409-12.572-64.004-32.004l-287.996-287.996 112-112 287.996 287.996c19.432 14.595 32.004 37.83 32.004 64.004zM0-32l48 160 112-112z" />
<glyph unicode="&#xe928;" d="M110.399-31.742c-0.005 0-0.008 0-0.014 0-59.377 0.006-102.535 33.781-104.343 35.219-5.325 4.234-7.39 11.374-5.147 17.798 2.242 6.422 8.302 10.725 15.105 10.725 47.668 0 58.821 25.63 72.94 58.077 13.556 31.152 30.426 69.923 87.070 69.923 21.363 0 41.45-8.321 56.559-23.432s23.431-35.2 23.431-56.568c0-21.369-8.321-41.459-23.432-56.568-36.61-36.611-77.715-55.174-122.169-55.174zM501.172 471.962c-13.269 11.726-33.531 10.475-45.258-2.794l-242.078-273.939c-1.424-1.635-2.98-3.604-4.231-5.439-2.115-3.103-3.867-6.346-5.271-9.678 16.923-4.762 32.434-13.8 45.207-26.573 12.85-12.85 21.921-28.471 26.659-45.515 9.532 3.958 18.065 10.627 24.312 19.791l205.922 302.061c8.99 13.157 6.989 31.261-5.262 42.086z" />
<glyph unicode="&#xe929;" d="M256 368c0-8.837-7.163-16-16-16s-16 7.163-16 16c0 8.837 7.163 16 16 16s16-7.163 16-16zM192 368c0-8.837-7.163-16-16-16s-16 7.163-16 16c0 8.837 7.163 16 16 16s16-7.163 16-16zM192 432c0-8.837-7.163-16-16-16s-16 7.163-16 16c0 8.837 7.163 16 16 16s16-7.163 16-16zM128 368c0-8.837-7.163-16-16-16s-16 7.163-16 16c0 8.837 7.163 16 16 16s16-7.163 16-16zM64 368c0-8.837-7.163-16-16-16s-16 7.163-16 16c0 8.837 7.163 16 16 16s16-7.163 16-16zM32 336c0-8.837-7.163-16-16-16s-16 7.163-16 16c0 8.837 7.163 16 16 16s16-7.163 16-16zM96 400c0-8.837-7.163-16-16-16s-16 7.163-16 16c0 8.837 7.163 16 16 16s16-7.163 16-16zM64 432c0-8.837-7.163-16-16-16s-16 7.163-16 16c0 8.837 7.163 16 16 16s16-7.163 16-16zM32 400c0-8.837-7.163-16-16-16s-16 7.163-16 16c0 8.837 7.163 16 16 16s16-7.163 16-16zM32 464c0-8.837-7.163-16-16-16s-16 7.163-16 16c0 8.837 7.163 16 16 16s16-7.163 16-16zM160 400c0-8.837-7.163-16-16-16s-16 7.163-16 16c0 8.837 7.163 16 16 16s16-7.163 16-16zM128 432c0-8.837-7.163-16-16-16s-16 7.163-16 16c0 8.837 7.163 16 16 16s16-7.163 16-16zM96 464c0-8.837-7.163-16-16-16s-16 7.163-16 16c0 8.837 7.163 16 16 16s16-7.163 16-16zM160 336c0-8.837-7.163-16-16-16s-16 7.163-16 16c0 8.837 7.163 16 16 16s16-7.163 16-16zM96 336c0-8.837-7.163-16-16-16s-16 7.163-16 16c0 8.837 7.163 16 16 16s16-7.163 16-16zM64 304c0-8.837-7.163-16-16-16s-16 7.163-16 16c0 8.837 7.163 16 16 16s16-7.163 16-16zM224 400c0-8.837-7.163-16-16-16s-16 7.163-16 16c0 8.837 7.163 16 16 16s16-7.163 16-16zM462.391 342.149c-13.482 3.371-29.263 5.928-46.391 7.596v50.255c0 8.836-21.49 16-48 16s-48-7.164-48-16v-16h16c8.837 0 16-7.164 16-16s-7.163-16.975-16-16.975l-0.004-0.003c-23.316-1.448-44.797-4.476-62.387-8.873-12.269-3.067-49.609-12.402-49.609-38.149v-288c0-25.748 37.34-35.082 49.609-38.15 25.408-6.352 58.93-9.85 94.391-9.85s68.982 3.498 94.391 9.85c12.269 3.068 49.609 12.402 49.609 38.15v288c0 25.747-37.34 35.082-49.609 38.149zM480 144.877c-7.081 2.635-13.651 4.283-17.609 5.272-21.548 5.388-48.939 8.712-78.391 9.601v-111.75c0-8.837-7.163-16-16-16s-16 7.163-16 16v111.75c-29.451-0.889-56.843-4.213-78.391-9.601-3.958-0.989-10.528-2.638-17.609-5.272v126.245c7.081-2.635 13.651-4.282 17.609-5.272 21.548-5.387 48.939-8.711 78.391-9.6v-96.5c5.277 0.159 10.612 0.25 16 0.25s10.723-0.091 16-0.25v96.5c29.451 0.889 56.843 4.213 78.391 9.6 3.958 0.99 10.528 2.637 17.609 5.272v-126.245z" />
<glyph unicode="&#xe92a;" d="M257.54 416c-164.546 0-257.54-109.352-257.54-189.347 0-121.887 109.354-190.477 200.308-212.956 90.962-22.488 125.172 18.765 123.714 66.303-1.771 57.75 27.073 58.496 47.52 56.459 20.431-2.051 140.458-29.764 140.458 62.215 0 113.826-89.928 217.326-254.46 217.326zM224 384c17.673 0 32-14.327 32-32s-14.327-32-32-32-32 14.327-32 32 14.327 32 32 32zM80 191.754c-8.973 0-16.246 7.273-16.246 16.246s7.273 16.246 16.246 16.246 16.246-7.273 16.246-16.246-7.273-16.246-16.246-16.246zM128 256c-17.673 0-32 14.327-32 32s14.327 32 32 32 32-14.327 32-32-14.327-32-32-32zM256 128c-35.346 0-64 21.49-64 48s28.654 48 64 48c35.347 0 64-21.49 64-48s-28.653-48-64-48zM368 256c-26.51 0-48 21.49-48 48s21.49 48 48 48 48-21.49 48-48-21.49-48-48-48z" />
<glyph unicode="&#xe92b;" d="M256 416c-141.385 0-256-100.288-256-224 0-82.947 51.529-155.359 128.101-194.078 43.186-21.34 80.116-5.816 54.146 30.87-13.888 13.875-22.247 31.728-22.247 51.208 0 44.183 42.98 80 96 80s96-35.817 96-80c0-19.48-8.359-37.332-22.246-51.207-25.97-36.685 10.955-52.209 54.139-30.874 76.576 38.718 128.107 111.132 128.107 194.081 0 123.712-114.615 224-256 224zM64 160c-17.673 0-32 14.326-32 32s14.327 32 32 32 32-14.326 32-32-14.327-32-32-32zM128 260.287c-22.958-13.255-48.732-11.593-57.569 3.713-8.836 15.306 2.611 38.458 25.569 51.713s48.732 11.593 57.569-3.713c8.837-15.306-2.611-38.458-25.569-51.713zM256 288c-35.346 0-64 21.49-64 48s28.654 48 64 48c35.347 0 64-21.49 64-48s-28.653-48-64-48zM384 260.287c-22.958 13.255-34.406 36.407-25.569 51.713s34.611 16.968 57.569 3.713 34.406-36.407 25.569-51.713-34.611-16.968-57.569-3.713zM448 160c-17.673 0-32 14.326-32 32s14.327 32 32 32 32-14.326 32-32-14.327-32-32-32z" />
<glyph unicode="&#xe92c;" d="M368 128h-352c-8.836 0-16-7.163-16-16v-96c0-8.837 7.164-16 16-16h352c8.837 0 16 7.163 16 16v96c0 8.837-7.163 16-16 16zM320 32c-17.673 0-32 14.326-32 32s14.327 32 32 32 32-14.326 32-32-14.327-32-32-32zM384 141.421v226.579c0 8.836-7.163 16-16 16h-96c-8.837 0-16-7.164-16-16v-98.579l128-128zM502.328 331.321l-86.328 41.668v-257.329l93.783 194.296c3.841 7.959 0.504 17.523-7.455 21.365zM314.51 160l-164.215 164.216c-6.249 6.248-16.379 6.248-22.627 0l-67.882-67.883c-6.249-6.248-6.249-16.379 0-22.627l73.704-73.706h181.020z" />
<glyph unicode="&#xe92d;" d="M448 288v112c0 8.836-7.163 16-16 16h-112v64l-80-80 80-80v64h96v-96h-64l80-80 80 80h-64zM360 224h-104v104c0 13.2-10.8 24-24 24h-208c-13.2 0-24-10.8-24-24v-208c0-13.2 10.8-24 24-24h104v-104c0-13.2 10.8-24 24-24h208c13.2 0 24 10.8 24 24v208c0 13.2-10.8 24-24 24zM352 0h-192v96h72c13.2 0 24 10.8 24 24v72h96v-192z" />
<glyph unicode="&#xe92e;" d="M424.488 299.155c-9.973 4.287-23.826 8.060-41.175 11.214-34.158 6.211-79.372 9.631-127.313 9.631s-93.155-3.42-127.313-9.631c-17.35-3.154-31.203-6.927-41.175-11.214-15.601-6.706-23.512-15.843-23.512-27.155 0-1.489 0.146-2.938 0.419-4.35l31.61-252.879c1.074-22.495 31.608-31.891 54.677-37.017 28.304-6.29 65.698-9.754 105.294-9.754s76.99 3.464 105.294 9.754c23.069 5.126 53.604 14.521 54.677 37.017l31.609 252.875c0.273 1.414 0.42 2.864 0.42 4.354 0 11.312-7.911 20.449-23.512 27.155zM145.244 280.691c30.84 4.713 70.174 7.309 110.756 7.309s79.915-2.596 110.757-7.309c19.24-2.94 31.487-6.098 39.148-8.691-7.661-2.593-19.908-5.751-39.148-8.691-30.842-4.713-70.176-7.309-110.757-7.309s-79.916 2.596-110.756 7.309c-19.241 2.94-31.488 6.098-39.149 8.691 7.661 2.593 19.908 5.751 39.149 8.691zM384.322 19.578c-2.792-2.031-12.373-7.505-39.267-12.47-24.828-4.584-56.455-7.108-89.055-7.108-32.599 0-64.226 2.524-89.055 7.108-26.895 4.965-36.475 10.438-39.268 12.47l-27.594 220.749c8.075-2.461 17.639-4.702 28.604-6.696 9.622-1.75 20.122-3.277 31.313-4.57v-69.061c0-17.673 14.327-32 32-32s32 14.327 32 32v64.519c10.464-0.342 21.161-0.519 32-0.519v-144c0-8.837 7.164-16 16-16s16 7.163 16 16v144.519c10.962 0.359 21.666 0.901 32 1.619v-50.138c0-8.837 7.163-16 16-16s16 7.163 16 16v53.061c11.191 1.293 21.691 2.821 31.313 4.57 10.964 1.994 20.528 4.235 28.604 6.696l-27.595-220.749zM438.271 414.719c-17.575 21.001-41.094 37.128-69.902 47.931-30.701 11.513-68.508 17.35-112.369 17.35s-81.668-5.837-112.368-17.35c-28.81-10.803-52.328-26.93-69.903-47.931-28.469-34.021-41.729-79.371-41.729-142.719 0-8.836 7.164-16 16-16s16 7.164 16 16c0 55.418 10.89 94.243 34.271 122.183 14.181 16.947 32.694 29.542 56.597 38.505 27.095 10.16 61.121 15.312 101.132 15.312 40.012 0 74.037-5.152 101.132-15.312 23.903-8.963 42.416-21.558 56.598-38.505 23.38-27.94 34.27-66.765 34.27-122.183 0-8.836 7.163-16 16-16s16 7.164 16 16c0 63.348-13.26 108.698-41.729 142.719z" />
<glyph unicode="&#xe92f;" d="M438.271 414.719c-17.575 21.001-41.094 37.128-69.902 47.931-30.701 11.513-68.508 17.35-112.369 17.35s-81.668-5.837-112.368-17.35c-28.81-10.803-52.328-26.93-69.903-47.931-28.469-34.021-41.729-79.371-41.729-142.719 0-8.836 7.164-16 16-16s16 7.164 16 16c0 55.418 10.89 94.243 34.271 122.183 14.181 16.947 32.694 29.542 56.597 38.505 27.095 10.16 61.121 15.312 101.132 15.312 40.012 0 74.037-5.152 101.132-15.312 23.903-8.963 42.416-21.558 56.598-38.505 23.38-27.94 34.27-66.765 34.27-122.183 0-8.836 7.163-16 16-16s16 7.164 16 16c0 63.348-13.26 108.698-41.729 142.719zM424.488 299.155c-9.973 4.287-23.826 8.060-41.175 11.214-34.158 6.211-79.372 9.631-127.313 9.631s-93.155-3.42-127.313-9.631c-17.35-3.154-31.203-6.927-41.175-11.214-15.601-6.706-23.512-15.843-23.512-27.155 0-1.489 0.146-2.938 0.419-4.35l31.61-252.879c1.074-22.495 31.608-31.891 54.677-37.017 28.304-6.29 65.698-9.754 105.294-9.754s76.99 3.464 105.294 9.754c23.069 5.126 53.604 14.521 54.677 37.017l31.609 252.875c0.273 1.414 0.42 2.864 0.42 4.354 0 11.312-7.911 20.449-23.512 27.155zM366.757 263.309c-30.842-4.713-70.176-7.309-110.757-7.309s-79.916 2.596-110.756 7.309c-19.241 2.94-31.488 6.098-39.149 8.691 7.661 2.593 19.908 5.751 39.149 8.691 30.84 4.713 70.174 7.309 110.756 7.309s79.915-2.596 110.757-7.309c19.24-2.94 31.487-6.098 39.148-8.691-7.661-2.593-19.908-5.751-39.148-8.691z" />
<glyph unicode="&#xe930;" d="M480 480h-448c-17.6 0-32-14.4-32-32v-448c0-17.6 14.4-32 32-32h448c17.6 0 32 14.4 32 32v448c0 17.6-14.4 32-32 32zM160 448v-16h-16v16h16zM144 80v16h16v-16h-16zM160 64v-16h-16v16h16zM144 112v16h16v-16h-16zM144 144v16h16v-16h-16zM144 176v16h16v-16h-16zM144 208v16h16v-16h-16zM144 240v16h16v-16h-16zM144 272v16h16v-16h-16zM144 304v16h16v-16h-16zM144 336v16h16v-16h-16zM144 368v16h16v-16h-16zM144 400v16h16v-16h-16zM144 32h16v-16h-16v16zM128 448v-16h-16v16h16zM112 80v16h16v-16h-16zM128 64v-16h-16v16h16zM112 112v16h16v-16h-16zM112 144v16h16v-16h-16zM112 176v16h16v-16h-16zM112 208v16h16v-16h-16zM112 240v16h16v-16h-16zM112 272v16h16v-16h-16zM112 304v16h16v-16h-16zM112 336v16h16v-16h-16zM112 368v16h16v-16h-16zM112 400v16h16v-16h-16zM112 32h16v-16h-16v16zM96 448v-16h-16v16h16zM80 80v16h16v-16h-16zM96 64v-16h-16v16h16zM80 112v16h16v-16h-16zM80 144v16h16v-16h-16zM80 176v16h16v-16h-16zM80 208v16h16v-16h-16zM80 240v16h16v-16h-16zM80 272v16h16v-16h-16zM80 304v16h16v-16h-16zM80 336v16h16v-16h-16zM80 368v16h16v-16h-16zM80 400v16h16v-16h-16zM80 32h16v-16h-16v16zM480 0h-64v16h-16v-16h-16v16h-16v-16h-16v16h-16v-16h-16v16h-16v-16h-16v16h-16v-16h-16v16h-16v-16h-16v16h-16v-16h-16v16h-16v16h16v16h-16v16h16v16h-16v16h16v16h-16v16h16v16h-16v16h16v16h-16v16h16v16h-16v16h16v16h-16v16h16v16h-16v16h16v16h-16v16h16v16h-16v16h16v16h-16v16h16v16h-16v16h16v16h-16v16h16v-16h16v16h16v-16h16v16h16v-16h16v16h16v-16h16v16h176v-448zM240 432h16v-16h-16v16zM272 432h16v-16h-16v16zM304 432h16v-16h-16v16zM336 432h16v-16h-16v16zM256 416h16v-16h-16v16zM240 400h16v-16h-16v16zM288 416h16v-16h-16v16zM272 400h16v-16h-16v16zM208 432h16v-16h-16v16zM192 416h16v-16h-16v16zM224 416h16v-16h-16v16zM208 400h16v-16h-16v16zM304 400h16v-16h-16v16zM336 400h16v-16h-16v16zM368 432h16v-16h-16v16zM400 432h16v-16h-16v16zM368 400h16v-16h-16v16zM400 400h16v-16h-16v16zM256 384h16v-16h-16v16zM240 368h16v-16h-16v16zM288 384h16v-16h-16v16zM272 368h16v-16h-16v16zM304 368h16v-16h-16v16zM336 368h16v-16h-16v16zM256 352h16v-16h-16v16zM240 336h16v-16h-16v16zM288 352h16v-16h-16v16zM272 336h16v-16h-16v16zM192 384h16v-16h-16v16zM224 384h16v-16h-16v16zM208 368h16v-16h-16v16zM192 352h16v-16h-16v16zM224 352h16v-16h-16v16zM208 336h16v-16h-16v16zM304 336h16v-16h-16v16zM336 336h16v-16h-16v16zM368 368h16v-16h-16v16zM400 368h16v-16h-16v16zM368 336h16v-16h-16v16zM400 336h16v-16h-16v16zM256 320h16v-16h-16v16zM240 304h16v-16h-16v16zM288 320h16v-16h-16v16zM272 304h16v-16h-16v16zM304 304h16v-16h-16v16zM336 304h16v-16h-16v16zM256 288h16v-16h-16v16zM240 272h16v-16h-16v16zM288 288h16v-16h-16v16zM272 272h16v-16h-16v16zM192 320h16v-16h-16v16zM224 320h16v-16h-16v16zM208 304h16v-16h-16v16zM192 288h16v-16h-16v16zM224 288h16v-16h-16v16zM208 272h16v-16h-16v16zM304 272h16v-16h-16v16zM336 272h16v-16h-16v16zM368 304h16v-16h-16v16zM400 304h16v-16h-16v16zM368 272h16v-16h-16v16zM400 272h16v-16h-16v16zM256 256h16v-16h-16v16zM240 240h16v-16h-16v16zM288 256h16v-16h-16v16zM272 240h16v-16h-16v16zM304 240h16v-16h-16v16zM336 240h16v-16h-16v16zM256 224h16v-16h-16v16zM240 208h16v-16h-16v16zM288 224h16v-16h-16v16zM272 208h16v-16h-16v16zM192 256h16v-16h-16v16zM224 256h16v-16h-16v16zM208 240h16v-16h-16v16zM192 224h16v-16h-16v16zM224 224h16v-16h-16v16zM208 208h16v-16h-16v16zM304 208h16v-16h-16v16zM336 208h16v-16h-16v16zM368 240h16v-16h-16v16zM400 240h16v-16h-16v16zM368 208h16v-16h-16v16zM400 208h16v-16h-16v16zM256 192h16v-16h-16v16zM240 176h16v-16h-16v16zM288 192h16v-16h-16v16zM272 176h16v-16h-16v16zM304 176h16v-16h-16v16zM336 176h16v-16h-16v16zM256 160h16v-16h-16v16zM240 144h16v-16h-16v16zM288 160h16v-16h-16v16zM272 144h16v-16h-16v16zM192 192h16v-16h-16v16zM224 192h16v-16h-16v16zM208 176h16v-16h-16v16zM192 160h16v-16h-16v16zM224 160h16v-16h-16v16zM208 144h16v-16h-16v16zM304 144h16v-16h-16v16zM336 144h16v-16h-16v16zM368 176h16v-16h-16v16zM400 176h16v-16h-16v16zM368 144h16v-16h-16v16zM400 144h16v-16h-16v16zM256 128h16v-16h-16v16zM240 112h16v-16h-16v16zM288 128h16v-16h-16v16zM272 112h16v-16h-16v16zM304 112h16v-16h-16v16zM336 112h16v-16h-16v16zM256 96h16v-16h-16v16zM240 80h16v-16h-16v16zM288 96h16v-16h-16v16zM272 80h16v-16h-16v16zM192 128h16v-16h-16v16zM224 128h16v-16h-16v16zM208 112h16v-16h-16v16zM192 96h16v-16h-16v16zM224 96h16v-16h-16v16zM208 80h16v-16h-16v16zM304 80h16v-16h-16v16zM336 80h16v-16h-16v16zM368 112h16v-16h-16v16zM400 112h16v-16h-16v16zM368 80h16v-16h-16v16zM400 80h16v-16h-16v16zM256 64h16v-16h-16v16zM240 48h16v-16h-16v16zM288 64h16v-16h-16v16zM272 48h16v-16h-16v16zM304 48h16v-16h-16v16zM336 48h16v-16h-16v16zM256 32h16v-16h-16v16zM288 32h16v-16h-16v16zM192 64h16v-16h-16v16zM224 64h16v-16h-16v16zM208 48h16v-16h-16v16zM192 32h16v-16h-16v16zM224 32h16v-16h-16v16zM368 48h16v-16h-16v16zM400 48h16v-16h-16v16z" />
<glyph unicode="&#xe931;" d="M493.255 461.255c-24.994 24.993-65.516 24.993-90.51 0l-86.059-86.059-60.686 60.686-67.882-67.882 53.213-53.213-236.059-236.059c-4.024-4.024-5.734-9.479-5.15-14.728h-0.122v-80c0-8.837 7.164-16 16-16h80c0 0 1.332 0 2 0 4.606 0 9.213 1.758 12.728 5.272l236.059 236.059 53.213-53.213 67.882 67.882-60.686 60.686 86.059 86.059c24.993 24.994 24.993 65.516 0 90.51zM86.545 0h-54.545v54.545l234.787 234.786 54.544-54.544-234.786-234.787z" />
<glyph unicode="&#xe932;" d="M493.255 461.255c-24.994 24.993-65.516 24.993-90.51 0l-86.059-86.059-60.686 60.686-67.882-67.882 53.213-53.213-236.059-236.059c-4.024-4.024-5.734-9.479-5.15-14.728h-0.122v-80c0-8.837 7.164-16 16-16h80c0 0 1.332 0 2 0 4.606 0 9.213 1.758 12.728 5.272l236.059 236.059 53.213-53.213 67.882 67.882-60.686 60.686 86.059 86.059c24.993 24.994 24.993 65.516 0 90.51zM246.544 160h-109.088l129.332 129.331 54.544-54.544-74.788-74.787z" />
<glyph unicode="&#xe933;" d="M384 320h-56c-32 0-8 32-8 96 0 7.555-0.9 13.307-2.474 17.61-7.651 26.779-32.29 46.39-61.526 46.39s-53.875-19.611-61.526-46.39c-1.573-4.303-2.474-10.055-2.474-17.61 0-64 24-96-8-96h-56v-64h64v-248c0-4.4 3.6-8 8-8h16c4.4 0 8-3.6 8-8v-16c0-4.4 3.6-8 8-8h48c4.4 0 8 3.6 8 8v16c0 4.4 3.6 8 8 8h16c4.4 0 8 3.6 8 8v248h64v64zM288 31.196c-15.649-3.189-28.007-15.547-31.196-31.196h-1.607c-3.19 15.649-15.547 28.007-31.196 31.196v224.804h64v-224.804z" />
<glyph unicode="&#xe934;" d="M432.313 243.419c-32.877 91.72-102.555 174.075-176.313 236.581-73.758-62.506-143.435-144.861-176.313-236.581-20.332-56.718-22.341-118.281 6.292-172.7 32.923-62.57 99.316-102.719 170.021-102.719s137.098 40.149 170.020 102.72c28.635 54.419 26.625 115.981 6.293 172.699zM369.382 100.522c-21.901-41.626-66.406-68.522-113.382-68.522-27.56 0-54.262 9.268-76.056 25.326 6.621-0.862 13.316-1.326 20.056-1.326 58.713 0 114.334 33.607 141.701 85.621 22.439 42.646 20.489 86.924 11.941 122.169 7.279-14.075 13.453-28.099 18.424-41.966 11.303-31.531 20.012-78.17-2.684-121.302z" />
<glyph unicode="&#xe935;" d="M256 415.542c24.396-23.188 46.328-47.364 65.479-72.192 29.781-38.613 51.869-77.684 65.649-116.128 12.386-34.551 21.816-85.871-3.588-134.152-24.634-46.818-74.696-77.070-127.54-77.070-52.845 0-102.907 30.252-127.542 77.070-25.403 48.281-15.973 99.602-3.586 134.152 13.779 38.443 35.867 77.514 65.649 116.127 19.151 24.829 41.084 49.005 65.479 72.193v0zM256 480c-73.758-62.506-143.435-144.861-176.313-236.581-20.332-56.718-22.341-118.28 6.292-172.7 32.923-62.57 99.316-102.719 170.021-102.719s137.098 40.149 170.020 102.72c28.635 54.419 26.625 115.981 6.293 172.7-32.877 91.719-102.555 174.074-176.313 236.58v0z" />
<glyph unicode="&#xe936;" d="M432.313 243.419c-32.877 91.72-102.555 174.075-176.313 236.581-73.758-62.506-143.435-144.861-176.313-236.581-20.332-56.718-22.341-118.281 6.292-172.7 32.923-62.57 99.316-102.719 170.021-102.719s137.098 40.149 170.020 102.72c28.635 54.419 26.625 115.981 6.293 172.699zM128.458 93.070c-25.403 48.281-15.972 99.602-3.586 134.152 13.78 38.443 35.868 77.514 65.65 116.127 19.15 24.829 41.083 49.004 65.479 72.192v-399.541c-52.845 0-102.908 30.252-127.543 77.070z" />
<glyph unicode="&#xe937;" d="M502.628 22.628l-416 416-45.255-45.255 74.43-74.43c-14.496-24.264-26.792-49.514-36.116-75.523-20.332-56.718-22.341-118.281 6.292-172.7 32.923-62.571 99.316-102.72 170.021-102.72 55.663 0 108.648 24.888 144.739 66.005l56.633-56.633 45.256 45.256zM432.313 243.419c-32.877 91.72-102.555 174.075-176.313 236.581-25.768-21.837-51.030-46.103-74.407-72.338l265.207-265.207c2.885 33.73-2.727 68.156-14.487 100.964z" />
<glyph unicode="&#xe938;" d="M512 192v192h-96v32c0 17.6-14.4 32-32 32h-352c-17.6 0-32-14.4-32-32v-96c0-17.6 14.4-32 32-32h352c17.6 0 32 14.4 32 32v32h64v-128h-288v-64h-16c-8.837 0-16-7.163-16-16v-160c0-8.837 7.163-16 16-16h64c8.837 0 16 7.163 16 16v160c0 8.837-7.163 16-16 16h-16v32h288zM384 384h-352v32h352v-32z" />
<glyph unicode="&#xe939;" d="M496 128h-160c-26.51 0-48 21.49-48 48v117.47c37.285 13.18 64 48.732 64 90.53 0 53.020-42.98 96-96 96s-96-42.98-96-96c0-41.798 26.715-77.35 64-90.53v-117.47c0-26.51-21.49-48-48-48h-160c-8.836 0-16-7.163-16-16v-64c0-8.837 7.164-16 16-16h480c8.837 0 16 7.163 16 16v64c0 8.837-7.163 16-16 16zM32 16v-32c0-8.837 7.164-16 16-16h416c8.837 0 16 7.163 16 16v32h-448z" />
<glyph unicode="&#xe93a;" d="M544 416h-32v32c0 17.6-14.4 32-32 32h-448c-17.6 0-32-14.4-32-32v-384c0-17.6 14.4-32 32-32h32v-32c0-17.6 14.4-32 32-32h448c17.6 0 32 14.4 32 32v384c0 17.6-14.4 32-32 32zM64 384v-320h-32v384h448v-32h-384c-17.6 0-32-14.4-32-32zM480 304c0-26.509-21.49-48-48-48s-48 21.491-48 48 21.49 48 48 48 48-21.491 48-48zM512 32h-384v64l112 192 128-160h32l112 96v-192z" horiz-adv-x="576" />
<glyph unicode="&#xe93b;" d="M480 448h-448c-17.6 0-32-14.4-32-32v-384c0-17.6 14.4-32 32-32h448c17.6 0 32 14.4 32 32v384c0 17.6-14.4 32-32 32zM368 384c26.51 0 48-21.491 48-48s-21.49-48-48-48-48 21.491-48 48 21.49 48 48 48zM448 64h-384v64l112 192 128-160h32l112 96v-192z" />
<glyph unicode="&#xe93c;" d="M479.942 416c0.020-0.017 0.041-0.038 0.058-0.058v-383.885c-0.017-0.020-0.038-0.041-0.058-0.058h-447.885c-0.020 0.017-0.041 0.038-0.057 0.058v383.886c0.017 0.020 0.038 0.041 0.057 0.057h447.885zM480 448h-448c-17.6 0-32-14.4-32-32v-384c0-17.6 14.4-32 32-32h448c17.6 0 32 14.4 32 32v384c0 17.6-14.4 32-32 32v0zM416 336c0-26.51-21.49-48-48-48s-48 21.49-48 48 21.49 48 48 48 48-21.49 48-48zM448 64h-384v64l112 192 128-160h32l112 96z" />
<glyph unicode="&#xe93d;" d="M416 304c0-26.51-21.49-48-48-48s-48 21.49-48 48c0 26.51 21.49 48 48 48s48-21.49 48-48zM0 384v-320c0-17.6 14.399-32 32-32h192v31.999h-191.943c-0.020 0.017-0.041 0.038-0.057 0.058v319.886c0.017 0.020 0.038 0.041 0.057 0.057h191.943v32h-192c-17.6 0-32-14.4-32-32zM480 416h-192v64h-32v-512h32v64h192c17.6 0 32 14.4 32 32v320c0 17.6-14.4 32-32 32zM480 64.057c-0.018-0.020-0.038-0.041-0.059-0.058h-191.941v32.001h160v160l-112-96h-32l-16 20v204h191.941c0.021-0.017 0.041-0.038 0.059-0.058v-319.885zM64 128v-32h160v164l-48 60z" />
<glyph unicode="&#xe93e;" d="M544 416h-32v32c0 17.6-14.4 32-32 32h-448c-17.6 0-32-14.4-32-32v-384c0-17.6 14.4-32 32-32h32v-32c0-17.6 14.4-32 32-32h448c17.6 0 32 14.4 32 32v384c0 17.6-14.4 32-32 32zM64 384v-320h-31.943c-0.020 0.017-0.041 0.038-0.057 0.058v383.885c0.017 0.020 0.038 0.041 0.057 0.057h447.885c0.020-0.017 0.041-0.038 0.058-0.058v-31.942h-384c-17.6 0-32-14.4-32-32v0zM544 0.058c-0.017-0.020-0.038-0.041-0.058-0.058h-447.885c-0.020 0.017-0.041 0.038-0.057 0.058v383.885c0.017 0.020 0.038 0.041 0.057 0.057h447.885c0.020-0.017 0.041-0.038 0.058-0.058v-383.884zM480 304c0-26.51-21.49-48-48-48s-48 21.49-48 48 21.49 48 48 48 48-21.49 48-48zM512 32h-384v64l112 192 128-160h32l112 96z" horiz-adv-x="576" />
<glyph unicode="&#xe93f;" d="M0 448v-480h512v480h-512zM448 96h-384v288h384v-288zM416 192l-32 64-64-64-96 160-128-192v-32h320z" />
<glyph unicode="&#xe940;" d="M384 448h-384v-384h384v384zM352 160h-320v256h320v-256zM256 320l-22.857-45.714-73.143 109.714-96-192h256zM416 356.623v-324.623h-355.528l-2.508-23.861 381.897-40.139 40.139 381.896z" />
<glyph unicode="&#xe941;" d="M432 288l-112-112-96 96-160-160v-48h384v224zM464 416c8.673 0 16-7.327 16-16v-352c0-8.673-7.327-16-16-16h-416c-8.673 0-16 7.327-16 16v352c0 8.673 7.327 16 16 16h416zM464 448h-416c-26.4 0-48-21.6-48-48v-352c0-26.4 21.6-48 48-48h416c26.4 0 48 21.6 48 48v352c0 26.4-21.6 48-48 48v0z" />
<glyph unicode="&#xe942;" d="M448 384v-320h-384v320h384zM464 448h-416c-26.4 0-48-21.6-48-48v-352c0-26.4 21.6-48 48-48h416c26.4 0 48 21.6 48 48v352c0 26.4-21.6 48-48 48v0zM320 176l-96 96-128-128v-48h320v176z" />
<glyph unicode="&#xe943;" d="M510.47 412h-508.94c-0.673-2.589-1.121-5.265-1.349-8h511.639c-0.229 2.735-0.678 5.411-1.35 8zM483.107 444h-454.212c-4.596-2.011-8.819-4.724-12.539-8h479.289c-3.72 3.276-7.941 5.989-12.538 8zM502.911 428h-493.822c-1.807-2.499-3.377-5.176-4.683-8h503.188c-1.306 2.824-2.877 5.501-4.683 8zM28.894 4h454.211c4.597 2.012 8.817 4.725 12.537 8h-479.287c3.72-3.275 7.942-5.988 12.539-8zM9.090 20h493.822c1.807 2.499 3.377 5.176 4.683 8h-503.189c1.306-2.824 2.877-5.501 4.684-8zM512 388v8h-512v-8h4v-328h-4v-8h512v8h-4v328h4zM44 388h8v-328h-8v328zM36 60h-8v328h8v-328zM60 388h392v-328h-392v328zM460 388h8v-328h-8v328zM476 388h8v-328h-8v328zM12 388h8v-328h-8v328zM500 60h-8v328h8v-328zM1.53 36h508.941c0.674 2.589 1.12 5.265 1.351 8h-511.641c0.229-2.735 0.676-5.411 1.349-8zM432 288l-112-112-96 96-160-160v-48h384v224z" />
<glyph unicode="&#xe944;" d="M152 176c0-57.438 46.562-104 104-104s104 46.562 104 104-46.562 104-104 104-104-46.562-104-104zM480 352h-112c-8 32-16 64-48 64h-128c-32 0-40-32-48-64h-112c-17.6 0-32-14.4-32-32v-288c0-17.6 14.4-32 32-32h448c17.6 0 32 14.4 32 32v288c0 17.6-14.4 32-32 32zM256 34c-78.425 0-142 63.574-142 142s63.575 142 142 142c78.426 0 142-63.575 142-142s-63.573-142-142-142zM480 256h-64v32h64v-32z" />
<glyph unicode="&#xe945;" d="M480 320h-96c-2.741 0-7.618 3.014-8.845 5.466l-17.689 35.378c-6.601 13.201-22.707 23.156-37.466 23.156h-128c-14.759 0-30.866-9.955-37.466-23.155l-17.689-35.378c-1.227-2.453-6.103-5.467-8.845-5.467v16c0 8.836-7.164 16-16 16h-64c-8.836 0-16-7.164-16-16v-16c-17.645 0-32-14.355-32-32v-288c0-17.645 14.355-32 32-32h448c17.645 0 32 14.355 32 32v288c0 17.645-14.355 32-32 32zM32 0v288h96c14.759 0 30.866 9.955 37.466 23.155l17.689 35.378c1.227 2.452 6.103 5.466 8.845 5.466h128c2.741 0 7.618-3.014 8.845-5.466l17.689-35.378c6.601-13.2 22.707-23.155 37.466-23.155h96l0.003-288h-448.003zM256 292c-72.785 0-132-59.215-132-132s59.215-132 132-132 132 59.215 132 132-59.215 132-132 132zM256 61c-54.589 0-99 44.411-99 99s44.411 99 99 99 99-44.411 99-99-44.411-99-99-99zM320 160c0-35.346-28.654-64-64-64s-64 28.654-64 64c0 35.346 28.654 64 64 64s64-28.654 64-64zM416 256h32v-32h-32v32z" />
<glyph unicode="&#xe946;" d="M416 448h-320c-35.2 0-64-28.8-64-64v-320c0-35.2 28.8-64 64-64h320c35.2 0 64 28.8 64 64v320c0 35.2-28.8 64-64 64zM336 192c0-44.112-35.888-80-80-80s-80 35.888-80 80c0 26.142 12.605 49.393 32.056 64h95.889c19.45-14.607 32.055-37.858 32.055-64zM160 384h32v-64h-32v64zM96 384h32v-64h-32v64zM416 64.114c-0.033-0.039-0.075-0.081-0.114-0.114h-319.772c-0.040 0.033-0.081 0.075-0.114 0.114v191.886h49.128c-10.891-18.828-17.128-40.685-17.128-64 0-70.692 57.308-128 128-128s128 57.308 128 128c0 23.315-6.236 45.172-17.128 64h49.128v-191.886z" />
<glyph unicode="&#xe947;" d="M163.625 256l127.903 221.534c-11.614 1.613-23.47 2.466-35.528 2.466-69.854 0-133.161-27.991-179.351-73.353l86.976-150.647zM237.526 320h255.846c-29.586 73.083-91.931 129.388-168.836 150.707l-87.010-150.707zM182.1 160l-127.899 221.528c-33.958-43.439-54.201-98.118-54.201-157.528 0-22.1 2.8-43.544 8.065-64h174.035zM329.901 288l127.899-221.528c33.957 43.439 54.2 98.118 54.2 157.528 0 22.099-2.801 43.544-8.065 64h-174.034zM274.474 128h-255.846c29.586-73.083 91.931-129.388 168.835-150.707l87.011 150.707zM348.375 192.001l-127.903-221.535c11.614-1.612 23.471-2.466 35.528-2.466 69.854 0 133.162 27.99 179.352 73.353l-86.977 150.648z" />
<glyph unicode="&#xe948;" d="M144 192h-32v-224h32c8.8 0 16 7.2 16 16v192c0 8.8-7.2 16-16 16zM368 192c-8.801 0-16-7.2-16-16v-192c0-8.8 7.199-16 16-16h32v224h-32zM512 224c0 141.385-114.615 256-256 256s-256-114.615-256-256c0-30.706 5.415-60.145 15.328-87.424-9.739-16.603-15.328-35.935-15.328-56.576 0-56.423 41.724-103.094 96-110.858v221.709c-15.957-2.283-30.832-7.921-43.877-16.189-2.696 13.359-4.123 27.182-4.123 41.338 0 114.875 93.125 208 208 208s208-93.125 208-208c0-14.157-1.415-27.984-4.11-41.348-13.050 8.273-27.927 13.924-43.89 16.209v-221.72c54.274 7.766 96 54.437 96 110.857 0 20.637-5.589 39.967-15.324 56.569 9.914 27.283 15.324 56.726 15.324 87.433z" />
<glyph unicode="&#xe949;" d="M414.392 414.392c-42.308 42.308-98.56 65.608-158.392 65.608s-116.083-23.3-158.391-65.608-65.609-98.559-65.609-158.392v-112c0-26.51 21.49-48 48-48s48 21.49 48 48v64c0 26.51-21.49 48-48 48-5.362 0-10.513-0.893-15.328-2.515v2.515c8.159 98.41 90.848 176 191.328 176s183.17-77.59 191.328-176v-2.515c-4.815 1.622-9.965 2.515-15.328 2.515-26.51 0-48-21.49-48-48v-64c0-26.51 21.49-48 48-48 5.611 0 10.994 0.973 16 2.742v-50.742c0-8.822-7.178-16-16-16h-82.742c-6.591 18.641-24.359 32-45.258 32-26.51 0-48-21.49-48-48s21.49-48 48-48c20.898 0 38.667 13.359 45.258 32h82.742c26.468 0 48 21.532 48 48v208c0 59.833-23.3 116.083-65.608 158.392z" />
<glyph unicode="&#xe94a;" d="M406.079 332.794c-43.525 61.105-39.44 17.957-81.604 139.842l-44.589 7.364-49.609-366.475c-111.816 63.979-182.336-1.734-164.492-84.443 9.46-43.856 80.716-85.137 150.9-44.39 33.171 19.945 43.836 52.11 48.070 74.919l35.438 271.926c126.445-111.487 86.071-178.946 59.925-256.622 53.749 22.167 137.94 119.944 45.961 257.879z" />
<glyph unicode="&#xe94b;" d="M160 384v-263.703c-14.549 4.937-30.821 7.703-48 7.703-61.856 0-112-35.817-112-80s50.144-80 112-80 112 35.817 112 80v151.578l224 61.091v-76.372c-14.549 4.937-30.821 7.703-48 7.703-61.855 0-112-35.817-112-80s50.145-80 112-80 112 35.817 112 80v368l-352-96zM224 249.331v48.669l224 61.091v-48.669l-224-61.091z" />
<glyph unicode="&#xe94c;" d="M160 384l352 96v-368c0-44.183-50.145-80-112-80s-112 35.817-112 80c0 44.183 50.145 80 112 80 17.179 0 33.451-2.766 48-7.703v164.794l-224-61.091v-240c0-44.183-50.144-80-112-80s-112 35.817-112 80c0 44.183 50.144 80 112 80 17.179 0 33.451-2.766 48-7.703v263.703z" />
<glyph unicode="&#xe94d;" d="M480 480l-288-64v-312.020c-20.329 14.82-48.658 24.020-80 24.020-61.856 0-112-35.816-112-80s50.144-80 112-80 112 35.817 112 80v206.708l256 56.889v-143.617c-20.329 14.82-48.658 24.020-80 24.020-61.855 0-112-35.816-112-80s50.145-80 112-80 112 35.817 112 80v368h-32zM480 352.574l-256-56.889v63.426l256 56.889v-63.426z" />
<glyph unicode="&#xe94e;" d="M480 480h32v-368c0-44.183-50.145-80-112-80s-112 35.817-112 80c0 44.184 50.145 80 112 80 31.342 0 59.671-9.2 80-24.020v184.020l-256-56.889v-247.111c0-44.183-50.144-80-112-80s-112 35.817-112 80c0 44.184 50.144 80 112 80 31.342 0 59.671-9.2 80-24.020v312.020l288 64z" />
<glyph unicode="&#xe94f;" d="M480 480l-288-64v-312.020c-20.329 14.82-48.658 24.020-80 24.020-61.856 0-112-35.816-112-80s50.144-80 112-80 112 35.817 112 80v206.708l256 56.889v-143.617c-20.329 14.82-48.658 24.020-80 24.020-61.855 0-112-35.816-112-80s50.145-80 112-80 112 35.817 112 80v368h-32zM112 6c-42.353 0-74 22.174-74 42s31.647 42 74 42 74-22.174 74-42-31.647-42-74-42zM400 70c-42.354 0-74 22.174-74 42s31.646 42 74 42 74-22.174 74-42-31.646-42-74-42zM480 352.574l-256-56.889v63.426l256 56.889v-63.426z" />
<glyph unicode="&#xe950;" d="M464 352h-416c-8.8 0-16-7.2-16-16v-352c0-8.8 7.2-16 16-16h416c8.8 0 16 7.2 16 16v352c0 8.8-7.2 16-16 16zM384 80c0-26.51-28.653-48-64-48s-64 21.49-64 48 28.654 48 64 48c11.661 0 22.584-2.351 32-6.438v93.295l-128-45.715v-121.142c0-26.51-28.653-48-64-48-35.346 0-64 21.49-64 48s28.654 48 64 48c11.661 0 22.584-2.351 32-6.438v134.438l192 64v-208zM432 384h-352c-8.836 0-16 7.164-16 16s7.164 16 16 16h352c8.837 0 16-7.164 16-16s-7.163-16-16-16zM400 448h-288c-8.836 0-16 7.164-16 16s7.164 16 16 16h288c8.837 0 16-7.164 16-16s-7.163-16-16-16z" />
<glyph unicode="&#xe951;" d="M123.532 96l-21.333-64h307.473l-21.223 64zM496 384h-480c-8.836 0-16-7.164-16-16v-320c0-8.837 7.164-16 16-16h52.468l28.353 85.060c2.178 6.533 8.293 10.94 15.179 10.94h288c6.896 0 13.017-4.418 15.187-10.964l28.198-85.036h52.615c8.837 0 16 7.163 16 16v320c0 8.836-7.163 16-16 16zM128 160c-35.346 0-64 28.653-64 64s28.654 64 64 64 64-28.654 64-64c0-35.347-28.654-64-64-64zM384 160c-35.346 0-64 28.653-64 64s28.654 64 64 64 64-28.654 64-64c0-35.347-28.654-64-64-64zM432 320h-352c-8.836 0-16 7.164-16 16s7.164 16 16 16h352c8.837 0 16-7.164 16-16s-7.163-16-16-16zM160 224c0-17.673-14.327-32-32-32s-32 14.327-32 32c0 17.673 14.327 32 32 32s32-14.327 32-32zM416 224c0-17.673-14.327-32-32-32s-32 14.327-32 32c0 17.673 14.327 32 32 32s32-14.327 32-32z" />
<glyph unicode="&#xe952;" d="M400 320c-61.855 0-112-50.144-112-112 0-17.179 3.873-33.451 10.785-48h-85.57c6.913 14.549 10.785 30.821 10.785 48 0 61.856-50.144 112-112 112s-112-50.144-112-112c0-61.855 50.144-112 112-112h288c61.855 0 112 50.145 112 112s-50.144 112-112 112zM64 208c0 26.51 21.49 48 48 48s48-21.49 48-48-21.49-48-48-48-48 21.49-48 48zM400 160c-26.51 0-48 21.49-48 48s21.49 48 48 48 48-21.49 48-48-21.49-48-48-48z" />
<glyph unicode="&#xe953;" d="M0 480v-512h480v512h-480zM96 0h-64v448h32v-320h32v-128zM224.001 0h-96v128h32v320h32v-320h32v-128zM352 0h-96v128h32v320h32v-320h32v-128zM448 0h-64v128h32v320h32v-448z" />
<glyph unicode="&#xe954;" d="M440 352l72 64c-6.038 32.334-31.666 57.962-64 64l-64-72v-17.109l-90.735-90.735c-47.034 38.417-79.561 33.168-100.675 15.795-20.49-16.855-28.145-50.262-39.481-60.243-22.896-20.152-79.232 0.076-127.196-52.117-55.501-60.398-11.705-124.791 36.591-173.087 48.295-48.294 112.689-92.092 173.087-36.592 52.194 47.964 31.954 104.312 52.105 127.207 9.98 11.337 43.398 18.979 60.255 39.47 17.371 21.114 22.62 53.642-15.796 100.676l90.736 90.735h17.109zM146.565 50.565l-64 64 26.87 26.869 64-64-26.87-26.869zM240 160c-26.51 0-48 21.49-48 48s21.49 48 48 48 48-21.49 48-48-21.49-48-48-48z" />
<glyph unicode="&#xe955;" d="M496 384c-8.837 0-16-7.164-16-16 0-40.686-23.635-66.558-43.462-81.098-26.78-19.638-63.424-30.902-100.538-30.902h-16v48c0 8.836-7.163 16-16 16s-16-7.164-16-16v-48h-32v48c0 8.836-7.164 16-16 16s-16-7.164-16-16v-48h-32v48c0 8.836-7.164 16-16 16s-16-7.164-16-16v-48h-128v16c0 8.836-7.164 16-16 16s-16-7.164-16-16v-96c0-8.837 7.164-16 16-16s16 7.163 16 16v16h69.491c-3.551-10.014-5.491-20.784-5.491-32 0-52.935 43.065-96 96-96h96c52.935 0 96 43.065 96 96 0 9.244-1.317 18.185-3.767 26.649 20.94-5.146 40.369-13.865 56.305-25.552 19.827-14.539 43.462-40.411 43.462-81.097 0-8.837 7.163-16 16-16s16 7.163 16 16v288c0 8.836-7.163 16-16 16zM288 128h-96c-17.645 0-32 14.355-32 32s14.355 32 32 32h96c17.645 0 32-14.355 32-32s-14.355-32-32-32z" />
<glyph unicode="&#xe956;" d="M400 480h-288c-26.4 0-48-21.6-48-48v-416c0-26.4 21.6-48 48-48h288c26.4 0 48 21.6 48 48v416c0 26.4-21.599 48-48 48zM256 448c35.347 0 64-28.654 64-64s-28.653-64-64-64c-35.346 0-64 28.654-64 64s28.654 64 64 64zM256 0c-70.692 0-128 57.308-128 128s57.308 128 128 128 128-57.308 128-128-57.307-128-128-128zM256 224c-53.020 0-96-42.98-96-96s42.98-96 96-96 96 42.98 96 96-42.98 96-96 96zM256 96c-17.673 0-32 14.327-32 32s14.327 32 32 32c17.673 0 32-14.327 32-32s-14.327-32-32-32zM288 384c0-17.673-14.327-32-32-32s-32 14.327-32 32c0 17.673 14.327 32 32 32s32-14.327 32-32z" />
<glyph unicode="&#xe957;" d="M490.594 399.946c-71.816 10.325-151.166 16.054-234.593 16.054-83.43 0-162.778-5.729-234.597-16.054-13.765-53.863-21.404-113.375-21.404-175.946 0-62.57 7.639-122.083 21.404-175.945 71.819-10.326 151.168-16.055 234.597-16.055 83.427 0 162.776 5.729 234.593 16.055 13.766 53.862 21.406 113.375 21.406 175.945 0 62.571-7.64 122.083-21.406 175.946zM192.001 128v192l160-96-160-96z" />
<glyph unicode="&#xe958;" d="M192 299.075v-150.15l130.033 75.071zM0 352v-320h512v320h-512zM480 64h-448v32h448v-32zM480 128h-448v192h448v-192z" />
<glyph unicode="&#xe959;" d="M39.151 348.73l432.722 115.942 24.845-92.726-432.722-115.942zM64 256v-288h448v288h-448zM224 32v160l128-80-128-80z" />
<glyph unicode="&#xe95a;" d="M32 416c-17.673 0-32-14.327-32-32v-128h512v160h-480zM32 288v16l80 80h64l-96-96h-48zM144 288l96 96h64l-96-96h-64zM272 288l96 96h64l-96-96h-64zM480 304l-16-16h-64l80 80v-64zM0 224h512v-256h-512v256z" />
<glyph unicode="&#xe95b;" d="M512 48c0-26.51-28.653-48-64-48-35.348 0-64 21.49-64 48s28.653 48 64 48c11.66 0 22.584-2.352 32-6.438v93.295l-128-45.715v-121.142c0-26.51-28.653-48-64-48s-64 21.49-64 48 28.653 48 64 48c11.661 0 22.584-2.352 32-6.438v134.438l192 64v-208zM144 384c-26.467 0-48-21.533-48-48s21.533-48 48-48 48 21.533 48 48-21.532 48-48 48zM272 448h-70.111l-11.578 23.155c-2.71 5.421-8.25 8.845-14.311 8.845h-64c-6.060 0-11.6-3.424-14.311-8.845l-11.577-23.155h-70.112c-8.836 0-16-7.164-16-16v-192c0-8.837 7.164-16 16-16h256c8.837 0 16 7.163 16 16v192c0 8.836-7.163 16-16 16zM144 256c-44.112 0-80 35.888-80 80s35.888 80 80 80 80-35.888 80-80-35.887-80-80-80z" />
<glyph unicode="&#xe95c;" d="M456 480h-432c-13.2 0-24-10.8-24-24v-368c0-13.2 10.8-24 24-24h142.544l-65.272-65.272c-7.029-7.029-7.029-18.426 0-25.455 3.515-3.515 8.122-5.273 12.728-5.273s9.213 1.758 12.728 5.272l90.728 90.728h6.544v-80c0-8.837 7.164-16 16-16s16 7.163 16 16v80h6.545l90.728-90.728c3.514-3.514 8.121-5.272 12.727-5.272s9.213 1.758 12.728 5.272c7.030 7.029 7.030 18.426 0 25.455l-65.273 65.273h142.545c13.2 0 24 10.8 24 24v368c0 13.2-10.8 24-24 24zM192 384l128-80-128-80v160zM400 128h-320c-8.836 0-16 7.163-16 16s7.164 16 16 16h320c8.837 0 16-7.163 16-16s-7.163-16-16-16z" />
<glyph unicode="&#xe95d;" d="M256 480c-141.385 0-256-114.615-256-256s114.615-256 256-256 256 114.615 256 256-114.615 256-256 256zM256 423.191c30.187 0 54.658-24.471 54.658-54.659s-24.472-54.658-54.658-54.658c-30.188 0-54.658 24.471-54.658 54.658s24.47 54.659 54.658 54.659zM57.778 272.636c0 30.187 24.471 54.658 54.659 54.658 30.187 0 54.658-24.471 54.658-54.658s-24.471-54.659-54.658-54.659c-30.187 0.001-54.659 24.472-54.659 54.659zM169.201 57.356c-30.187 0-54.658 24.471-54.658 54.658s24.472 54.659 54.658 54.659c30.187 0 54.659-24.472 54.659-54.659s-24.472-54.658-54.659-54.658zM256 192c-17.673 0-32 14.327-32 32s14.327 32 32 32c17.673 0 32-14.327 32-32s-14.327-32-32-32zM342.799 57.031c-30.188 0-54.658 24.471-54.658 54.658s24.471 54.659 54.658 54.659c30.187 0 54.658-24.472 54.658-54.659s-24.472-54.658-54.658-54.658zM399.562 217.652c-30.187 0-54.658 24.471-54.658 54.659s24.472 54.658 54.658 54.658c30.188 0 54.659-24.471 54.659-54.658s-24.47-54.659-54.659-54.659z" />
<glyph unicode="&#xe95e;" d="M0 480v-512h512v512h-512zM320 448h64v-64h-64v64zM224 448h64v-64h-64v64zM128 448h64v-64h-64v64zM32 448h64v-64h-64v64zM32 352h192v-256h-192v256zM96 0h-64v64h64v-64zM192 0h-64v64h64v-64zM288 0h-64v64h64v-64zM384 0h-64v64h64v-64zM480 0h-64v64h64v-64zM480 96h-224v256h224v-256zM480 384h-64v64h64v-64z" />
<glyph unicode="&#xe95f;" d="M0 448v-448h512v448h-512zM96 32h-64v64h64v-64zM96 128h-64v64h64v-64zM96 256h-64v64h64v-64zM96 352h-64v64h64v-64zM384 32h-256v160h256v-160zM384 256h-256v160h256v-160zM480 32h-64v64h64v-64zM480 128h-64v64h64v-64zM480 256h-64v64h64v-64zM480 352h-64v64h64v-64z" />
<glyph unicode="&#xe960;" d="M0 416v-384h512v384h-512zM96 64h-64v64h64v-64zM96 192h-64v64h64v-64zM96 320h-64v64h64v-64zM384 64h-256v320h256v-320zM480 64h-64v64h64v-64zM480 192h-64v64h64v-64zM480 320h-64v64h64v-64z" />
<glyph unicode="&#xe961;" d="M0 416v-384h512v384h-512zM96 64h-64v64h64v-64zM96 192h-64v64h64v-64zM96 320h-64v64h64v-64zM384 64h-256v320h256v-320zM480 64h-64v64h64v-64zM480 192h-64v64h64v-64zM480 320h-64v64h64v-64zM192 320v-192l128 96z" />
<glyph unicode="&#xe962;" d="M192 336c0 44.183 35.817 80 80 80s80-35.817 80-80c0-44.183-35.817-80-80-80s-80 35.817-80 80zM0 336c0 44.183 35.817 80 80 80s80-35.817 80-80c0-44.183-35.817-80-80-80s-80 35.817-80 80zM384 176v48c0 17.6-14.4 32-32 32h-320c-17.6 0-32-14.4-32-32v-160c0-17.6 14.4-32 32-32h320c17.6 0 32 14.4 32 32v48l128-80v224l-128-80zM320 96h-256v96h256v-96z" />
<glyph unicode="&#xe963;" d="M489.42 351.874c-5.294 0-10.729-1.861-15.718-5.383l-89.702-63.307v52.816c0 26.4-21.6 48-48 48h-288c-26.4 0-48-21.6-48-48v-224c0-26.4 21.6-48 48-48h288c26.4 0 48 21.6 48 48v52.815l89.701-63.307c4.989-3.521 10.424-5.382 15.717-5.383 0.001 0 0.001 0 0.003 0 7.044 0 13.477 3.248 17.646 8.911 3.228 4.385 4.934 10.027 4.934 16.318v205.291c-0.001 16.563-11.36 25.229-22.581 25.229z" />
<glyph unicode="&#xe964;" d="M48 384c-26.4 0-48-21.6-48-48v-224c0-11.563 4.145-22.206 11.021-30.516l201.677 302.516h-164.698zM489.42 351.874c-5.294 0-10.729-1.861-15.719-5.383l-89.701-63.307v52.816c0 26.4-21.601 48-48 48h-8.489l44.458 66.687-39.938 26.626-320-480 39.938-26.625 62.209 93.312h221.822c26.399 0 48 21.6 48 48v52.814l89.7-63.307c4.989-3.521 10.425-5.382 15.718-5.383 0.001 0 0.001 0 0.003 0 7.044 0 13.477 3.248 17.646 8.911 3.229 4.385 4.935 10.026 4.935 16.317v205.293c-0.002 16.563-11.361 25.229-22.582 25.229z" />
<glyph unicode="&#xe965;" d="M489.42 351.874c-5.294 0-10.729-1.861-15.718-5.383l-89.702-63.307v52.816c0 26.4-21.6 48-48 48h-288c-26.4 0-48-21.6-48-48v-224c0-26.4 21.6-48 48-48h288c26.4 0 48 21.6 48 48v52.814l89.701-63.307c4.989-3.521 10.424-5.382 15.717-5.383 0.001 0 0.001 0 0.003 0 7.044 0 13.478 3.248 17.646 8.911 3.228 4.385 4.934 10.026 4.934 16.317v205.293c-0.001 16.563-11.36 25.229-22.581 25.229zM128 128v192l160-96-160-96z" />
<glyph unicode="&#xe966;" d="M489.42 351.874c-5.294 0-10.729-1.861-15.718-5.383l-89.702-63.307v52.816c0 26.4-21.6 48-48 48h-288c-26.4 0-48-21.6-48-48v-224c0-26.4 21.6-48 48-48h288c26.4 0 48 21.6 48 48v52.815l89.701-63.307c4.989-3.521 10.424-5.382 15.717-5.383 0.001 0 0.001 0 0.003 0 7.044 0 13.477 3.248 17.646 8.911 3.228 4.385 4.934 10.027 4.934 16.318v205.291c-0.001 16.563-11.36 25.229-22.581 25.229zM480 136.23l-79.021 55.77h-48.979v-80c0-8.673-7.327-16-16-16h-288c-8.673 0-16 7.327-16 16v224c0 8.673 7.327 16 16 16h288c8.673 0 16-7.327 16-16v-80h48.979l79.021 55.77v-175.54z" />
<glyph unicode="&#xe967;" d="M489.42 351.874c-5.294 0-10.729-1.861-15.719-5.383l-89.701-63.307v52.816c0 26.4-21.601 48-48 48h-6.825l51.728 70.538c5.226 7.126 3.686 17.139-3.44 22.364s-17.138 3.686-22.364-3.44l-65.607-89.462h-241.492c-26.4 0-48-21.6-48-48v-224c0-26.4 21.6-48 48-48h6.826l-51.728-70.538c-5.226-7.126-3.686-17.139 3.44-22.364 2.852-2.091 6.165-3.099 9.449-3.099 4.923 0 9.781 2.265 12.915 6.539l65.606 89.462h241.492c26.399 0 48 21.6 48 48v52.814l89.7-63.307c4.989-3.521 10.425-5.382 15.718-5.383 0.001 0 0.001 0 0.003 0 7.044 0 13.477 3.248 17.646 8.911 3.229 4.385 4.935 10.026 4.935 16.317v205.293c-0.002 16.563-11.361 25.229-22.582 25.229zM48 96c-8.673 0-16 7.327-16 16v224c0 8.673 7.327 16 16 16h218.025l-187.733-256h-30.292zM480 136.23l-79.021 55.77h-48.979v-80c0-8.673-7.327-16-16-16h-218.025l187.733 256h30.292c8.673 0 16-7.327 16-16v-80h48.979l79.021 55.77v-175.54z" />
<glyph unicode="&#xe968;" d="M489.42 351.874c-5.294 0-10.729-1.861-15.718-5.383l-89.702-63.307v52.816c0 26.4-21.6 48-48 48h-288c-26.4 0-48-21.6-48-48v-224c0-26.4 21.6-48 48-48h288c26.4 0 48 21.6 48 48v52.814l89.701-63.307c4.989-3.521 10.424-5.382 15.717-5.383 0.001 0 0.001 0 0.003 0 7.044 0 13.478 3.248 17.646 8.911 3.228 4.385 4.934 10.026 4.934 16.317v205.293c-0.001 16.563-11.36 25.229-22.581 25.229zM480 136.23l-79.021 55.77h-48.979v-80c0-8.673-7.327-16-16-16h-288c-8.673 0-16 7.327-16 16v224c0 8.673 7.327 16 16 16h288c8.673 0 16-7.327 16-16v-80h48.979l79.021 55.77v-175.54zM128 320l160-96-160-96z" />
<glyph unicode="&#xe969;" d="M352 352c0-53.019-42.981-96-96-96s-96 42.981-96 96c0 53.019 42.981 96 96 96s96-42.981 96-96zM304 160c8.837 0 16 7.163 16 16s-7.163 16-16 16h-96c-8.836 0-16-7.163-16-16v-192c0-8.837 7.164-16 16-16h96c8.837 0 16 7.163 16 16s-7.163 16-16 16h-80v64h80c8.837 0 16 7.163 16 16s-7.163 16-16 16h-80v64h80zM128 128c0 35.29-28.71 64-64 64h-48c-8.836 0-16-7.163-16-16v-192c0-8.837 7.164-16 16-16s16 7.163 16 16v80h22.111l43.578-87.155c2.804-5.607 8.454-8.849 14.323-8.849 2.404 0 4.847 0.545 7.143 1.693 7.904 3.951 11.107 13.562 7.156 21.466l-38.691 77.382c23.63 9.42 40.38 32.515 40.38 59.463zM64 96h-32v64h32c17.645 0 32-14.355 32-32s-14.355-32-32-32zM496 0h-48c-17.645 0-32 14.355-32 32v96c0 17.645 14.355 32 32 32h48c8.837 0 16 7.163 16 16s-7.163 16-16 16h-48c-35.29 0-64-28.71-64-64v-96c0-35.29 28.71-64 64-64h48c8.837 0 16 7.163 16 16s-7.163 16-16 16z" />
<glyph unicode="&#xe96a;" d="M432 384h-256c-44 0-80-36-80-80v-256c0-44 36-80 80-80h256c44 0 80 36 80 80v256c0 44-36 80-80 80zM208 32c-26.51 0-48 21.49-48 48s21.49 48 48 48 48-21.49 48-48-21.49-48-48-48zM208 224c-26.51 0-48 21.49-48 48s21.49 48 48 48 48-21.49 48-48-21.49-48-48-48zM304 128c-26.51 0-48 21.49-48 48s21.49 48 48 48 48-21.49 48-48-21.49-48-48-48zM400 32c-26.51 0-48 21.49-48 48s21.49 48 48 48 48-21.49 48-48-21.49-48-48-48zM400 224c-26.51 0-48 21.49-48 48s21.49 48 48 48 48-21.49 48-48-21.49-48-48-48zM414.38 416c-7.465 36.402-39.855 64-78.38 64h-256c-44 0-80-36-80-80v-256c0-38.523 27.598-70.915 64-78.38v318.38c0 17.6 14.4 32 32 32h318.38z" />
<glyph unicode="&#xe96b;" d="M160 320h-32v-32h-32v-32h32v-32h32v32h32v32h-32zM320 296c0 13.255 10.745 24 24 24s24-10.745 24-24c0-13.255-10.745-24-24-24s-24 10.745-24 24zM368 248c0 13.255 10.745 24 24 24s24-10.745 24-24c0-13.255-10.745-24-24-24s-24 10.745-24 24zM369.736 394.074c-58.11 0-67.181-34.417-113.735-34.421-46.555 0.004-55.625 34.421-113.735 34.421-93.736 0-142.266-114.737-142.266-196.813 0-77.651 7.296-134.155 36.344-142.085 29.063-7.958 66.085 23.379 102.175 57.36 36.081 33.981 42.174 31.771 71.229 31.771l46.252-1.022 46.252 1.021c29.056 0 35.148 2.211 71.229-31.771 36.090-33.981 73.111-65.318 102.175-57.36 29.048 7.93 36.344 64.434 36.344 142.086 0 82.076-48.529 196.813-142.264 196.813zM144 192c-44.183 0-80 35.817-80 80s35.817 80 80 80 80-35.817 80-80-35.817-80-80-80zM368 192c-44.183 0-80 35.817-80 80s35.817 80 80 80 80-35.817 80-80-35.817-80-80-80z" />
<glyph unicode="&#xe96c;" d="M475.931 322.066c-12.993 21.217-28.493 38.025-46.063 49.957-20.043 13.607-42.258 20.507-66.029 20.507-32.558 0-50.831-10.297-66.954-19.382-13.141-7.404-23.52-13.253-40.882-13.255-17.366 0.001-27.746 5.851-40.887 13.255-16.122 9.084-34.395 19.381-66.952 19.381-23.772 0-45.987-6.899-66.027-20.506-17.574-11.932-33.072-28.74-46.066-49.957-22.587-36.88-36.071-85.261-36.071-129.42 0-42.424 2.291-72.609 7.21-94.996 6.673-30.364 18.785-47.548 37.017-52.523 4.014-1.1 8.24-1.656 12.562-1.656 31.438 0 65.118 29.235 96.922 59.182 28.18 26.541 33.171 26.541 49.708 26.541 1.258 0 2.563-0.006 3.925-0.014 1.483-0.008 3.031-0.015 4.653-0.015l44.003-0.974 44.002 0.974c1.622 0 3.169 0.007 4.652 0.015 1.36 0.008 2.669 0.014 3.926 0.014 16.537 0 21.529 0 49.71-26.541 31.803-29.945 65.481-59.182 96.92-59.183 0.001 0 0.001 0 0.002 0 4.32 0 8.547 0.559 12.551 1.653 18.243 4.979 30.354 22.162 37.026 52.525 4.919 22.389 7.211 52.574 7.211 94.998 0 44.159-13.484 92.54-36.069 129.42zM473.534 104.518c-3.554-16.174-8.993-27.104-14.218-28.528-1.258-0.345-2.639-0.52-4.105-0.52-21.375 0.001-57.583 34.095-74.98 50.479-17.039 16.048-27.119 23.831-37.192 28.719-13.453 6.526-24.612 6.526-34.457 6.526-1.314 0-2.683-0.006-4.097-0.014-1.428-0.008-2.92-0.015-4.481-0.015h-0.354l-43.65-0.966-44.003 0.966c-1.563 0-3.054 0.007-4.472 0.014-1.425 0.009-2.791 0.015-4.106 0.015-9.845 0-21.004 0-34.457-6.527-10.072-4.887-20.152-12.67-37.188-28.715-17.401-16.385-53.61-50.479-74.985-50.479-1.468 0-2.85 0.176-4.136 0.526-5.198 1.419-10.635 12.348-14.189 28.521-4.41 20.069-6.464 48.073-6.464 88.126 0 18.804 2.901 39.152 8.391 58.848 5.472 19.634 13.415 38.258 22.969 53.859 10.603 17.312 22.968 30.836 36.753 40.195 14.639 9.94 30.805 14.98 48.051 14.98 24.161 0 36.71-7.071 51.251-15.264 14.451-8.142 30.83-17.37 56.592-17.372 25.752 0.003 42.13 9.23 56.588 17.376 14.531 8.188 27.082 15.26 51.244 15.26 17.244 0 33.411-5.041 48.050-14.98 13.787-9.362 26.152-22.886 36.753-40.196 9.555-15.601 17.496-34.225 22.969-53.859 5.488-19.695 8.391-40.044 8.391-58.849-0.002-40.046-2.057-68.052-6.468-88.126v0zM320 288c0 17.673 14.327 32 32 32s32-14.327 32-32-14.327-32-32-32-32 14.327-32 32zM384 224c0 17.673 14.327 32 32 32s32-14.327 32-32-14.327-32-32-32-32 14.327-32 32zM128 320c-35.29 0-64-28.71-64-64s28.71-64 64-64 64 28.71 64 64-28.71 64-64 64v0z" />
<glyph unicode="&#xe96d;" d="M496 383.206v0.794h-336c-88.365 0-160-71.635-160-160s71.635-160 160-160c52.345 0 98.816 25.139 128.007 64h63.985c29.189-38.861 75.662-64 128.008-64 88.366 0 160 71.634 160 160 0 82.965-63.146 151.178-144 159.206zM256 192h-64v-64h-64v64h-64v64h64v64h64v-64h64v-64zM448 192c-17.674 0-32 14.327-32 32s14.326 32 32 32 32-14.327 32-32-14.326-32-32-32zM544 192c-17.674 0-32 14.327-32 32 0 17.674 14.326 32 32 32s32-14.326 32-32c0-17.673-14.326-32-32-32z" horiz-adv-x="640" />
<glyph unicode="&#xe96e;" d="M482.365 390.598c-46.951 54.725-116.605 89.402-194.365 89.402-141.385 0-256-114.615-256-256s114.615-256 256-256c77.76 0 147.414 34.678 194.364 89.402l-162.364 166.598 162.365 166.598zM352 419.699c19.716 0 35.699-15.982 35.699-35.699s-15.983-35.699-35.699-35.699-35.699 15.983-35.699 35.699c0 19.716 15.983 35.699 35.699 35.699z" />
<glyph unicode="&#xe96f;" d="M408.785 305.925c-96.783 71.929-130.133 129.509-152.783 174.074v0c-0.002 0-0.002 0.001-0.002 0.001v-0.001c-22.648-44.565-56-102.146-152.783-174.074-165.018-122.643-9.688-293.834 126.879-199.612-8.898-58.465-39.265-101.086-70.104-119.441v-18.872h192.016v18.87c-30.841 18.354-61.205 60.977-70.106 119.442 136.568-94.223 291.9 76.97 126.883 199.613z" />
<glyph unicode="&#xe970;" d="M393.416 283.614c-29.516 0-56.043-12.298-74.926-32.347-7.998-8.492-21.881-18.556-36.9-27.405 7.055 26.934 29.338 60.85 44.814 75.728 19.82 19.085 31.992 45.915 31.992 75.75 0.003 57.447-45.738 104.048-102.394 104.66-56.66-0.611-102.398-47.213-102.398-104.659 0-29.836 12.172-56.665 31.993-75.75 15.477-14.878 37.76-48.794 44.814-75.728-15.021 8.85-28.903 18.913-36.9 27.405-18.884 20.049-45.41 32.347-74.925 32.347-57.193 0-103.54-46.832-103.54-104.664 0-57.819 46.346-104.669 103.54-104.669 29.521 0 56.041 12.678 74.925 32.726 8.402 8.936 23.222 20.069 39.146 29.316-1.501-73.846-36.766-128.084-72.659-149.453v-18.871h192.007v18.87c-35.896 21.368-71.16 75.608-72.66 149.453 15.926-9.247 30.744-20.384 39.146-29.316 18.883-20.047 45.404-32.726 74.926-32.726 57.193 0 103.539 46.85 103.539 104.669-0.001 57.832-46.346 104.664-103.54 104.664z" />
<glyph unicode="&#xe971;" d="M256 480l-160-256 160-256 160 256z" />
<glyph unicode="&#xe972;" d="M487.024 347.25c-16.872 16.872-40.057 24.976-65.75 24.976-34.444 0-73.404-14.558-107.766-42.062-8.132 24.908-23.24 43.758-41.509 50.811v35.025h48v32h-48v32h-32v-32h-48v-32h48v-35.024c-18.268-7.053-33.376-25.902-41.508-50.809-34.361 27.503-73.321 42.062-107.765 42.060-25.693-0.002-48.879-8.104-65.75-24.976-43.739-43.739-28.542-129.85 33.941-192.333 11.679-11.679 24.186-21.694 37.083-29.993v-46.882c43.829-8.785 99.454-14.043 160-14.043s116.171 5.258 160 14.043v46.88c12.897 8.298 25.404 18.314 37.083 29.993 62.483 62.484 77.68 148.596 33.941 192.334zM81.546 290.678c0.539 0.36 3.423 1.548 9.181 1.549h0.008c15.925 0 43.814-9.293 70.005-35.484 17.287-17.287 29.66-38.181 33.948-57.326 3.059-13.66 0.767-20.748-0.007-21.868-0.536-0.359-3.416-1.549-9.18-1.549-15.928 0-43.822 9.294-70.015 35.486-17.288 17.289-29.662 38.185-33.948 57.33-3.058 13.656-0.766 20.741 0.008 21.862zM430.461 268.81c-4.287-19.145-16.66-40.039-33.946-57.324-26.193-26.193-54.086-35.486-70.015-35.486-5.762 0-8.644 1.188-9.18 1.548-0.773 1.119-3.066 8.204-0.009 21.862 4.286 19.146 16.66 40.041 33.948 57.33 26.192 26.192 54.087 35.486 70.015 35.486 5.764 0 8.645-1.188 9.18-1.548 0.774-1.12 3.067-8.208 0.007-21.868zM96 29.168v-47.125c43.829-8.785 99.454-14.043 160-14.043s116.171 5.258 160 14.043v47.125c-46.914-8.625-101.98-13.168-160-13.168s-113.086 4.543-160 13.168z" />
<glyph unicode="&#xe973;" d="M256 0c-57.294 0-112.881 4.967-156.521 13.984-1.169 0.241-2.328 0.487-3.479 0.734v-32.676c43.829-8.784 99.454-14.042 160-14.042s116.171 5.258 160 14.043v32.676c-1.151-0.247-2.31-0.493-3.479-0.734-43.639-9.018-99.226-13.985-156.521-13.985zM384 49.003v14.997l-16 32h-224l-16-32v-14.997c37.655-5.446 81.37-8.564 128-8.564s90.345 3.118 128 8.564zM500.754 339.172c-14.997 14.997-39.311 14.997-54.307 0-12.725-12.724-14.646-32.154-5.776-46.911l-97.661-58.597 19.253 90.858c16.84-3.581 34.585 4.562 42.474 20.735 9.297 19.062 1.381 42.050-17.68 51.347-19.062 9.297-42.051 1.381-51.348-17.681-7.889-16.174-3.38-35.171 9.811-46.236l-59.104-70.348-21.101 84.403c16.705 4.163 29.085 19.261 29.085 37.256 0 21.208-17.192 38.4-38.399 38.4-21.208 0-38.4-17.192-38.4-38.4 0-17.995 12.38-33.093 29.086-37.256l-21.101-84.403-59.104 70.348c13.19 11.065 17.699 30.062 9.811 46.236-9.297 19.062-32.286 26.978-51.348 17.681-19.061-9.297-26.977-32.286-17.68-51.347 7.888-16.174 25.634-24.316 42.474-20.735l19.252-90.858-97.66 58.597c8.87 14.757 6.947 34.187-5.777 46.911-14.996 14.997-39.31 14.997-54.307 0-14.995-14.996-14.995-39.309 0.001-54.306 12.724-12.724 32.154-14.646 46.91-5.777l90.653-151.089h214.378l90.653 151.089c14.756-8.869 34.186-6.947 46.91 5.777 14.997 14.997 14.997 39.311 0.002 54.306z" />
<glyph unicode="&#xe974;" d="M96 336h288v-256h-288zM384 352l64 64v64h-64v-32h-96v32h-96v-32h-96v32h-64v-64l64-64h288zM384 400l-16-16h-256l-16 16h288zM64 64h352v-32h-352zM448 16h-416c0 0-24.5-16-32-48h480c-7.5 32-32 48-32 48z" />
<glyph unicode="&#xe975;" d="M396.797 96h-313.593c14.825-36.516 79.39-64 156.796-64s141.972 27.484 156.797 64zM0-32h45c0 1.29 1.402 5.613 5.57 10.059s8.221 5.941 9.43 5.941h135c26.719 0.5 45 31.5 45 48 0 0-150 0-180 0s-60-32-60-64zM420 32c-30 0-180 0-180 0 0-16.5 18.281-47.5 45-48h135c1.209 0 5.263-1.496 9.43-5.941s5.57-8.769 5.57-10.059h45c0 32-30 64-60 64zM240 128h156.797c-6.501 16.013-22.567 30.287-45.086 41.271 10.369 14.006 16.289 32.023 16.289 54.729 0 80.469-58.467 132.785-99.354 151.882 16.378 9.771 27.354 27.66 27.354 48.118 0 30.928-25.072 56-56 56s-56-25.072-56-56c0-20.458 10.976-38.347 27.354-48.118-40.887-19.097-99.354-71.413-99.354-151.882 0-22.706 5.92-40.723 16.289-54.729-22.518-10.984-38.585-25.259-45.085-41.271h156.796c0 0 0 0 0 0zM160 256v32h64v64h32v-64h64v-32h-64v-64h-32v64h-64z" />
<glyph unicode="&#xe976;" d="M496 0h-368l-16-32h400zM283.746 224c6.724-103.949-84.766-144.757-116.334-208h312.588c0 35.797 0 92.966 0 176 0 111.17-43.536 191.427-94.956 230.070-2.373 10.093-5.959 21.243-9.954 30.304l-6.18 14.013c-7.102 16.104-22.144 18.229-33.426 4.722l-19.313-23.118c-0.141 0.001-0.283 0.009-0.425 0.009-8.234 0-15.821-0.257-22.854-0.745l-42.266 28.178c-14.645 9.763-26.626 3.351-26.626-14.249v-32.592c-12.982-7.351-23.863-16.243-36.254-25.691-32-24.399-108.926-121.066-160-178.901-47.246-53.5-21.725-96 23-86-2.246-42 32.754-28.5 57-10 55.907 42.657 180.754 22.5 176 96zM387.463 393.462c17.253-17.466 32.154-39.811 43.73-65.751 17.788-39.857 26.807-85.517 26.807-135.711v-144l-48 48v96c0 43.411-7.617 82.489-22.64 116.149-9.204 20.625-20.739 38.084-33.835 51.375l33.938 33.938zM80 185.372c-12.497 0-22.628 10.13-22.628 22.628s10.131 22.627 22.628 22.627c12.496 0 22.627-10.13 22.627-22.627s-10.131-22.628-22.627-22.628zM240.971 336.029c-18.746-18.745-41.539-26.343-50.912-16.971-9.373 9.373-1.775 32.167 16.97 50.912s41.539 26.343 50.913 16.97c9.37-9.372 1.774-32.166-16.971-50.911z" />
<glyph unicode="&#xe977;" d="M368.010 162.020c10.183 18.365 15.99 39.493 15.99 61.98 0 51.657-30.604 96.162-74.667 116.386 16.362 14.649 26.667 35.925 26.667 59.614 0 44.183-35.817 80-80 80s-80-35.817-80-80c0-23.69 10.305-44.965 26.667-59.614-44.063-20.224-74.667-64.729-74.667-116.386 0-22.487 5.806-43.615 15.99-61.98-66.946-38.733-111.99-111.114-111.99-194.020h448c0 82.906-45.044 155.287-111.99 194.020z" />
<glyph unicode="&#xe978;" d="M448 480h64v-64h-64zM448 352h64v-64h-64zM448 224h64v-64h-64zM448 96h64v-64h-64zM384 416h64v-64h-64zM384 288h64v-64h-64zM384 160h64v-64h-64zM384 32h64v-64h-64zM320 480h64v-64h-64zM320 352h64v-64h-64zM320 224h64v-64h-64zM320 96h64v-64h-64zM256 416h64v-64h-64zM256 288h64v-64h-64zM256 160h64v-64h-64zM256 32h64v-64h-64zM192 480h64v-64h-64zM192 352h64v-64h-64zM192 224h64v-64h-64zM192 96h64v-64h-64zM128 416h64v-64h-64zM128 288h64v-64h-64zM128 160h64v-64h-64zM128 32h64v-64h-64zM64 480h64v-64h-64zM64 352h64v-64h-64zM64 224h64v-64h-64zM64 96h64v-64h-64zM0 416h64v-64h-64zM0 288h64v-64h-64zM0 160h64v-64h-64zM0 32h64v-64h-64z" />
<glyph unicode="&#xe979;" d="M512 265.372c0 100.463-29.396 181.969-65.741 182.613 0.146 0.003 0.289 0.015 0.436 0.015h-41.471c0 0-97.4-73.168-237.615-101.877-4.28-22.646-7.015-49.637-7.015-80.751s2.733-58.104 7.015-80.75c140.214-28.709 237.615-101.878 237.615-101.878h41.471c-0.146 0-0.289 0.012-0.436 0.016 36.348 0.644 65.741 82.149 65.741 182.612zM432.412 110.374c-4.691 0-9.766 4.871-12.373 7.774-6.315 7.032-12.396 17.98-17.594 31.664-11.628 30.616-18.033 71.655-18.033 115.562 0 43.905 6.405 84.945 18.033 115.561 5.197 13.684 11.281 24.633 17.594 31.664 2.607 2.906 7.682 7.776 12.373 7.776s9.768-4.872 12.372-7.776c6.317-7.032 12.398-17.979 17.594-31.664 11.629-30.615 18.034-71.656 18.034-115.561 0-43.902-6.405-84.944-18.034-115.562-5.195-13.684-11.281-24.632-17.594-31.664-2.604-2.903-7.68-7.774-12.372-7.774zM125.906 265.372c0 25.975 1.905 51.215 5.526 74.547-23.686-3.277-44.471-5.162-70.17-5.162-33.529 0-33.529 0-33.529 0l-27.733-47.343v-44.085l27.73-47.343c0 0 0 0 33.53 0 25.699 0 46.484-1.887 70.17-5.162-3.618 23.332-5.524 48.573-5.524 74.548zM184.075 158.914l-63.999 12.255 40.921-160.772c2.118-8.317 10.372-12.519 18.343-9.327l59.278 23.726c7.972 3.188 11.164 11.982 7.098 19.542l-61.641 114.576zM432.412 205.635c-1.809 0-3.764 1.877-4.769 2.996-2.435 2.71-4.778 6.93-6.781 12.204-4.481 11.8-6.95 27.617-6.95 44.539s2.469 32.739 6.95 44.539c2.003 5.274 4.348 9.494 6.781 12.204 1.005 1.12 2.96 2.997 4.769 2.997 1.808 0 3.765-1.878 4.769-2.997 2.435-2.71 4.778-6.929 6.78-12.204 4.482-11.799 6.951-27.617 6.951-44.539s-2.469-32.739-6.951-44.539c-2.002-5.274-4.348-9.494-6.78-12.204-1.004-1.119-2.96-2.996-4.769-2.996z" />
<glyph unicode="&#xe97a;" d="M64 288h-64v-160h64v32l64.009-18.289c-0.002-0.242-0.009-0.484-0.009-0.729v-44.982c0-17.602 14.399-32 32-32h64c17.6 0 32 14.398 32 32v9.143l160-45.715v297.142l-352-100.57v32zM160 132.57l63.928-18.265v-18.305h-63.928v36.57zM448 365.714v-315.429l64-18.285v352z" />
<glyph unicode="&#xe97b;" d="M448 384h-384c-35.2 0-64-28.8-64-64v-224c0-35.2 28.8-64 64-64h384c35.199 0 64 28.8 64 64v224c0 35.2-28.801 64-64 64zM160 128h-32l-64 106.667v-106.667h-32v160h32l64-106.667v106.667h32v-160zM288 256h-64v-32h64v-32h-64v-32h64v-31.999l-96-0.001v160h96v-32zM480 128h-47.999l-32.001 64-32-64h-48v160h32v-128l32 64h32.001l31.999-63.998v127.998h32v-160z" />
<glyph unicode="&#xe97c;" d="M320 192c52.935 0 100.935-21.533 135.701-56.299l-45.234-45.234c-23.177 23.178-55.178 37.533-90.467 37.533s-67.289-14.355-90.467-37.533l-45.234 45.234c34.766 34.766 82.766 56.299 135.701 56.299zM93.726 226.274c60.44 60.44 140.799 93.726 226.274 93.726s165.834-33.286 226.275-93.726l-45.255-45.254c-48.353 48.352-112.64 74.98-181.020 74.98-68.381 0-132.667-26.628-181.019-74.981l-45.255 45.255zM494.392 412.781c53.351-22.566 101.258-54.864 142.391-95.998v0l-45.254-45.254c-72.528 72.528-168.96 112.471-271.529 112.471-102.57 0-199-39.943-271.529-112.471l-45.255 45.255c41.134 41.133 89.041 73.431 142.392 95.997 55.252 23.369 113.926 35.219 174.392 35.219s119.139-11.85 174.392-35.219zM288 32c0 17.673 14.327 32 32 32s32-14.327 32-32c0-17.673-14.327-32-32-32s-32 14.327-32 32z" horiz-adv-x="640" />
<glyph unicode="&#xe97d;" d="M320 192c52.935 0 100.935-21.533 135.701-56.299l-45.234-45.234c-23.177 23.178-55.178 37.533-90.467 37.533s-67.289-14.355-90.467-37.533l-45.234 45.234c34.766 34.766 82.766 56.299 135.701 56.299v0zM93.726 226.274c60.44 60.44 140.799 93.726 226.274 93.726s165.834-33.286 226.275-93.726l-45.255-45.254c-48.353 48.352-112.64 74.98-181.020 74.98-68.381 0-132.667-26.628-181.019-74.98l-45.255 45.254zM288 32c0 17.673 14.327 32 32 32s32-14.327 32-32-14.327-32-32-32-32 14.327-32 32zM420 370.915c2.676-0.716 5.343-1.459 8-2.233v66.226c-2.661 0.66-5.327 1.303-8 1.913v-65.906zM404 374.835c2.676-0.594 5.342-1.22 8-1.87v65.595c-2.662 0.556-5.327 1.094-8 1.601v-65.326zM468 354.554c2.68-1.119 5.347-2.266 8-3.445v68.97c-2.66 0.989-5.325 1.959-8 2.897v-68.422zM436 366.256c2.678-0.845 5.344-1.722 8-2.625v66.992c-2.661 0.766-5.326 1.514-8 2.23v-66.597zM452 360.809c2.679-0.978 5.345-1.986 8-3.024v67.902c-2.66 0.876-5.326 1.733-8 2.558v-67.436zM356 382.338c2.673-0.247 5.34-0.519 8-0.821v64.358c-2.662 0.259-5.329 0.49-8 0.701v-64.238zM324 383.976c2.671-0.027 5.338-0.084 8-0.166v64.030c-2.663 0.069-5.33 0.112-8 0.135v-63.999zM388 378.028c2.674-0.475 5.342-0.975 8-1.505v65.072c-2.662 0.455-5.328 0.889-8 1.295v-64.862zM372 380.53c2.674-0.36 5.34-0.752 8-1.167v64.666c-2.662 0.355-5.329 0.688-8 0.995v-64.494zM340 383.487c2.672-0.136 5.339-0.299 8-0.489v64.147c-2.662 0.163-5.33 0.296-8 0.412v-64.070zM612 292l8 8v32.729c-2.642 2.387-5.309 4.74-8 7.058v-47.787zM596 276l8 8v62.521c-2.645 2.173-5.311 4.316-8 6.425v-76.946zM580 282.591c2.695-2.485 5.364-5.008 8-7.578v84.060c-2.646 1.979-5.313 3.925-8 5.843v-82.325zM628 325.327v-17.327l8 8v1.557c-2.639 2.627-5.306 5.216-8 7.77zM484 417.024v-69.584c2.682-1.268 5.348-2.569 8-3.901v70.236c-2.66 1.107-5.325 2.196-8 3.249zM500 339.403c2.683-1.427 5.35-2.888 8-4.381v71.73c-2.653 1.227-5.318 2.431-8 3.607v-70.956zM516 330.388c2.685-1.599 5.352-3.232 8-4.899v73.484c-2.65 1.355-5.319 2.68-8 3.983v-72.568zM548 309.082c2.689-1.993 5.356-4.022 8-6.089v77.914c-2.649 1.643-5.315 3.259-8 4.847v-76.672zM564 296.558c2.693-2.224 5.359-4.49 8-6.793v80.73c-2.647 1.804-5.314 3.58-8 5.326v-79.263zM532 320.313c2.687-1.786 5.354-3.607 8-5.464v75.52c-2.65 1.495-5.316 2.963-8 4.405v-74.461zM100 314.849c2.646 1.857 5.313 3.678 8 5.464v74.461c-2.683-1.441-5.35-2.91-8-4.405v-75.52zM308 383.81c2.662 0.081 5.329 0.139 8 0.166v64c-2.67-0.023-5.337-0.066-8-0.135v-64.031zM116 325.488c2.648 1.667 5.315 3.3 8 4.899v72.57c-2.681-1.304-5.35-2.628-8-3.983v-73.486zM68 289.764c2.641 2.303 5.307 4.569 8 6.793v79.264c-2.686-1.746-5.353-3.521-8-5.326v-80.731zM132 406.753v-71.73c2.65 1.493 5.317 2.954 8 4.381v70.957c-2.681-1.177-5.347-2.382-8-3.608zM4 316l8-8v17.328c-2.694-2.554-5.361-5.143-8-7.769v-1.559zM52 275.012c2.635 2.57 5.305 5.093 8 7.578v82.326c-2.687-1.918-5.354-3.864-8-5.843v-84.061zM148 343.54c2.652 1.331 5.318 2.633 8 3.901v69.584c-2.675-1.054-5.34-2.143-8-3.25v-70.235zM20 300l8-8v47.789c-2.691-2.318-5.358-4.671-8-7.058v-32.731zM36 284l8-8v76.945c-2.689-2.108-5.355-4.251-8-6.424v-62.521zM84 302.992c2.644 2.067 5.311 4.097 8 6.089v76.672c-2.684-1.587-5.351-3.204-8-4.847v-77.914zM164 351.108c2.653 1.18 5.321 2.327 8 3.445v68.423c-2.675-0.937-5.34-1.907-8-2.897v-68.971zM276 381.518c2.661 0.302 5.328 0.574 8 0.821v64.237c-2.671-0.211-5.338-0.442-8-0.701v-64.357zM292 382.998c2.661 0.19 5.328 0.353 8 0.489v64.070c-2.67-0.116-5.338-0.249-8-0.412v-64.147zM244 376.523c2.659 0.531 5.326 1.030 8 1.505v64.862c-2.672-0.406-5.338-0.84-8-1.295v-65.072zM260 379.363c2.66 0.415 5.326 0.807 8 1.167v64.494c-2.671-0.308-5.338-0.64-8-0.995v-64.666zM196 363.631c2.656 0.903 5.322 1.781 8 2.625v66.597c-2.673-0.716-5.339-1.463-8-2.23v-66.992zM180 357.785c2.655 1.038 5.322 2.046 8 3.024v67.436c-2.674-0.825-5.339-1.682-8-2.558v-67.902zM228 372.965c2.658 0.65 5.325 1.276 8 1.87v65.326c-2.672-0.507-5.338-1.045-8-1.601v-65.595zM212 368.682c2.657 0.774 5.324 1.517 8 2.233v65.906c-2.673-0.61-5.338-1.253-8-1.913v-66.226z" horiz-adv-x="640" />
<glyph unicode="&#xe97e;" d="M320 192c52.935 0 100.935-21.533 135.701-56.299l-45.234-45.234c-23.177 23.178-55.178 37.533-90.467 37.533s-67.289-14.355-90.467-37.533l-45.234 45.234c34.766 34.766 82.766 56.299 135.701 56.299v0zM288 32c0 17.673 14.327 32 32 32s32-14.327 32-32-14.327-32-32-32-32 14.327-32 32zM420 370.915c2.676-0.716 5.343-1.459 8-2.233v66.226c-2.661 0.66-5.327 1.303-8 1.913v-65.906zM404 374.835c2.676-0.594 5.342-1.22 8-1.87v65.595c-2.662 0.556-5.327 1.094-8 1.601v-65.326zM468 354.554c2.68-1.119 5.347-2.266 8-3.445v68.97c-2.66 0.989-5.325 1.959-8 2.897v-68.422zM436 366.256c2.678-0.845 5.344-1.722 8-2.625v66.992c-2.661 0.766-5.326 1.514-8 2.23v-66.597zM452 360.809c2.679-0.978 5.345-1.986 8-3.024v67.902c-2.66 0.876-5.326 1.733-8 2.558v-67.436zM356 382.338c2.673-0.247 5.34-0.519 8-0.821v64.358c-2.662 0.259-5.329 0.49-8 0.701v-64.238zM324 383.976c2.671-0.027 5.338-0.084 8-0.166v64.030c-2.663 0.069-5.33 0.112-8 0.135v-63.999zM388 378.028c2.674-0.475 5.342-0.975 8-1.505v65.072c-2.662 0.455-5.328 0.889-8 1.295v-64.862zM372 380.53c2.674-0.36 5.34-0.752 8-1.167v64.666c-2.662 0.355-5.329 0.688-8 0.995v-64.494zM340 383.487c2.672-0.136 5.339-0.299 8-0.489v64.147c-2.662 0.163-5.33 0.296-8 0.412v-64.070zM612 292l8 8v32.729c-2.642 2.387-5.309 4.74-8 7.058v-47.787zM596 276l8 8v62.521c-2.645 2.173-5.311 4.316-8 6.425v-76.946zM580 282.591c2.695-2.485 5.364-5.008 8-7.578v84.060c-2.646 1.979-5.313 3.925-8 5.843v-82.325zM628 325.327v-17.327l8 8v1.557c-2.639 2.627-5.306 5.216-8 7.77zM484 417.024v-69.584c2.682-1.268 5.348-2.569 8-3.901v70.236c-2.66 1.107-5.325 2.196-8 3.249zM500 339.403c2.683-1.427 5.35-2.888 8-4.381v71.73c-2.653 1.227-5.318 2.431-8 3.607v-70.956zM516 330.388c2.685-1.599 5.352-3.232 8-4.899v73.484c-2.65 1.355-5.319 2.68-8 3.983v-72.568zM548 309.082c2.689-1.993 5.356-4.022 8-6.089v77.914c-2.649 1.643-5.315 3.259-8 4.847v-76.672zM564 296.558c2.693-2.224 5.359-4.49 8-6.793v80.73c-2.647 1.804-5.314 3.58-8 5.326v-79.263zM532 320.313c2.687-1.786 5.354-3.607 8-5.464v75.52c-2.65 1.495-5.316 2.963-8 4.405v-74.461zM100 314.849c2.646 1.857 5.313 3.678 8 5.464v74.461c-2.683-1.441-5.35-2.91-8-4.405v-75.52zM308 383.81c2.662 0.081 5.329 0.139 8 0.166v64c-2.67-0.023-5.337-0.066-8-0.135v-64.031zM116 325.488c2.648 1.667 5.315 3.3 8 4.899v72.57c-2.681-1.304-5.35-2.628-8-3.983v-73.486zM68 289.764c2.641 2.303 5.307 4.569 8 6.793v79.264c-2.686-1.746-5.353-3.521-8-5.326v-80.731zM132 406.753v-71.73c2.65 1.493 5.317 2.954 8 4.381v70.957c-2.681-1.177-5.347-2.382-8-3.608zM4 316l8-8v17.328c-2.694-2.554-5.361-5.143-8-7.769v-1.559zM52 275.012c2.635 2.57 5.305 5.093 8 7.578v82.326c-2.687-1.918-5.354-3.864-8-5.843v-84.061zM148 343.54c2.652 1.331 5.318 2.633 8 3.901v69.584c-2.675-1.054-5.34-2.143-8-3.25v-70.235zM20 300l8-8v47.789c-2.691-2.318-5.358-4.671-8-7.058v-32.731zM36 284l8-8v76.945c-2.689-2.108-5.355-4.251-8-6.424v-62.521zM84 302.992c2.644 2.067 5.311 4.097 8 6.089v76.672c-2.684-1.587-5.351-3.204-8-4.847v-77.914zM164 351.108c2.653 1.18 5.321 2.327 8 3.445v68.423c-2.675-0.937-5.34-1.907-8-2.897v-68.971zM276 381.518c2.661 0.302 5.328 0.574 8 0.821v64.237c-2.671-0.211-5.338-0.442-8-0.701v-64.357zM292 382.998c2.661 0.19 5.328 0.353 8 0.489v64.070c-2.67-0.116-5.338-0.249-8-0.412v-64.147zM244 376.523c2.659 0.531 5.326 1.030 8 1.505v64.862c-2.672-0.406-5.338-0.84-8-1.295v-65.072zM260 379.363c2.66 0.415 5.326 0.807 8 1.167v64.494c-2.671-0.308-5.338-0.64-8-0.995v-64.666zM196 363.631c2.656 0.903 5.322 1.781 8 2.625v66.597c-2.673-0.716-5.339-1.463-8-2.23v-66.992zM180 357.785c2.655 1.038 5.322 2.046 8 3.024v67.436c-2.674-0.825-5.339-1.682-8-2.558v-67.902zM228 372.965c2.658 0.65 5.325 1.276 8 1.87v65.326c-2.672-0.507-5.338-1.045-8-1.601v-65.595zM212 368.682c2.657 0.774 5.324 1.517 8 2.233v65.906c-2.673-0.61-5.338-1.253-8-1.913v-66.226zM388 246.914c2.682-0.734 5.348-1.519 8-2.339v66.378c-2.656 0.645-5.323 1.253-8 1.829v-65.868zM404 241.948c2.682-0.929 5.353-1.888 8-2.906v67.592c-2.654 0.792-5.322 1.547-8 2.271v-66.957zM356 253.488c2.676-0.375 5.345-0.776 8-1.233v64.74c-2.659 0.364-5.326 0.694-8 0.991v-64.498zM340 255.226c2.676-0.206 5.342-0.461 8-0.749v64.298c-2.66 0.229-5.327 0.425-8 0.589v-64.138zM372 250.732c2.68-0.55 5.346-1.146 8-1.78v65.444c-2.658 0.502-5.324 0.969-8 1.404v-65.068zM420 235.793c2.687-1.14 5.354-2.323 8-3.555v69.165c-2.652 0.949-5.321 1.855-8 2.732v-68.342zM436 228.342c2.691-1.371 5.356-2.796 8-4.264v71.091c-2.652 1.115-5.317 2.2-8 3.242v-70.069zM516 196l8 7.999v42.564c-2.639 2.191-5.303 4.343-8 6.442v-57.005zM532 239.688v-27.688l8 8v12.374c-2.629 2.491-5.302 4.92-8 7.314zM500 182.015c0.338-0.334 0.684-0.659 1.020-0.995l6.98 6.98v71.013c-2.641 1.926-5.309 3.807-8 5.646v-82.644zM452 219.454c2.696-1.628 5.359-3.316 8-5.048v73.501c-2.65 1.292-5.316 2.547-8 3.764v-72.217zM484 196.577c2.704-2.265 5.377-4.577 8-6.962v80.346c-2.646 1.693-5.31 3.355-8 4.966v-78.35zM324 255.951c2.673-0.041 5.341-0.112 8-0.234v64.039c-2.661 0.098-5.328 0.163-8 0.195v-64zM468 208.947c2.7-1.922 5.366-3.901 8-5.934v76.533c-2.646 1.482-5.315 2.919-8 4.323v-74.922zM228 239.042c2.647 1.018 5.318 1.977 8 2.905v66.957c-2.678-0.724-5.345-1.478-8-2.271v-67.591zM148 189.615c2.623 2.385 5.296 4.697 8 6.962v78.35c-2.69-1.611-5.354-3.273-8-4.966v-80.346zM132 188l6.981-6.98c0.336 0.336 0.681 0.66 1.019 0.994v82.645c-2.692-1.839-5.359-3.72-8-5.646v-71.013zM164 203.014c2.634 2.032 5.299 4.012 8 5.934v74.922c-2.685-1.404-5.354-2.841-8-4.323v-76.533zM180 214.405c2.64 1.732 5.304 3.421 8 5.050v72.216c-2.684-1.216-5.35-2.472-8-3.764v-73.502zM116 204l8-8v57.004c-2.698-2.099-5.361-4.25-8-6.442v-42.562zM100 220l8-8v27.687c-2.698-2.393-5.371-4.823-8-7.315v-12.372zM292 254.478c2.659 0.288 5.324 0.543 8 0.749v64.139c-2.673-0.164-5.34-0.36-8-0.589v-64.299zM196 224.078c2.644 1.468 5.309 2.894 8 4.264v70.069c-2.683-1.042-5.347-2.127-8-3.242v-71.091zM308 255.717c2.659 0.122 5.327 0.193 8 0.234v64c-2.672-0.032-5.339-0.097-8-0.195v-64.039zM260 248.952c2.654 0.635 5.321 1.23 8 1.78v65.067c-2.675-0.435-5.342-0.902-8-1.404v-65.443zM276 252.255c2.655 0.458 5.324 0.859 8 1.233v64.498c-2.674-0.297-5.341-0.627-8-0.991v-64.74zM212 232.238c2.646 1.232 5.313 2.416 8 3.555v68.342c-2.679-0.877-5.347-1.784-8-2.732v-69.165zM244 244.575c2.653 0.821 5.318 1.605 8 2.339v65.868c-2.677-0.576-5.344-1.185-8-1.829v-66.378z" horiz-adv-x="640" />
<glyph unicode="&#xe97f;" d="M288 32c0 17.673 14.327 32 32 32s32-14.327 32-32-14.327-32-32-32-32 14.327-32 32zM420 370.915c2.676-0.716 5.343-1.459 8-2.233v66.226c-2.661 0.66-5.327 1.303-8 1.913v-65.906zM404 374.835c2.676-0.594 5.342-1.22 8-1.87v65.595c-2.662 0.556-5.327 1.094-8 1.601v-65.326zM468 354.554c2.68-1.119 5.347-2.266 8-3.445v68.97c-2.66 0.989-5.325 1.959-8 2.897v-68.422zM436 366.256c2.678-0.845 5.344-1.722 8-2.625v66.992c-2.661 0.766-5.326 1.514-8 2.23v-66.597zM452 360.809c2.679-0.978 5.345-1.986 8-3.024v67.902c-2.66 0.876-5.326 1.733-8 2.558v-67.436zM356 382.338c2.673-0.247 5.34-0.519 8-0.821v64.358c-2.662 0.259-5.329 0.49-8 0.701v-64.238zM324 383.976c2.671-0.027 5.338-0.084 8-0.166v64.030c-2.663 0.069-5.33 0.112-8 0.135v-63.999zM388 378.028c2.674-0.475 5.342-0.975 8-1.505v65.072c-2.662 0.455-5.328 0.889-8 1.295v-64.862zM372 380.53c2.674-0.36 5.34-0.752 8-1.167v64.666c-2.662 0.355-5.329 0.688-8 0.995v-64.494zM340 383.487c2.672-0.136 5.339-0.299 8-0.489v64.147c-2.662 0.163-5.33 0.296-8 0.412v-64.070zM612 292l8 8v32.729c-2.642 2.387-5.309 4.74-8 7.058v-47.787zM596 276l8 8v62.521c-2.645 2.173-5.311 4.316-8 6.425v-76.946zM580 282.591c2.695-2.485 5.364-5.008 8-7.578v84.060c-2.646 1.979-5.313 3.925-8 5.843v-82.325zM628 325.327v-17.327l8 8v1.557c-2.639 2.627-5.306 5.216-8 7.77zM484 417.024v-69.584c2.682-1.268 5.348-2.569 8-3.901v70.236c-2.66 1.107-5.325 2.196-8 3.249zM500 339.403c2.683-1.427 5.35-2.888 8-4.381v71.73c-2.653 1.227-5.318 2.431-8 3.607v-70.956zM516 330.388c2.685-1.599 5.352-3.232 8-4.899v73.484c-2.65 1.355-5.319 2.68-8 3.983v-72.568zM548 309.082c2.689-1.993 5.356-4.022 8-6.089v77.914c-2.649 1.643-5.315 3.259-8 4.847v-76.672zM564 296.558c2.693-2.224 5.359-4.49 8-6.793v80.73c-2.647 1.804-5.314 3.58-8 5.326v-79.263zM532 320.313c2.687-1.786 5.354-3.607 8-5.464v75.52c-2.65 1.495-5.316 2.963-8 4.405v-74.461zM100 314.849c2.646 1.857 5.313 3.678 8 5.464v74.461c-2.683-1.441-5.35-2.91-8-4.405v-75.52zM308 383.81c2.662 0.081 5.329 0.139 8 0.166v64c-2.67-0.023-5.337-0.066-8-0.135v-64.031zM116 325.488c2.648 1.667 5.315 3.3 8 4.899v72.57c-2.681-1.304-5.35-2.628-8-3.983v-73.486zM68 289.764c2.641 2.303 5.307 4.569 8 6.793v79.264c-2.686-1.746-5.353-3.521-8-5.326v-80.731zM132 406.753v-71.73c2.65 1.493 5.317 2.954 8 4.381v70.957c-2.681-1.177-5.347-2.382-8-3.608zM4 316l8-8v17.328c-2.694-2.554-5.361-5.143-8-7.769v-1.559zM52 275.012c2.635 2.57 5.305 5.093 8 7.578v82.326c-2.687-1.918-5.354-3.864-8-5.843v-84.061zM148 343.54c2.652 1.331 5.318 2.633 8 3.901v69.584c-2.675-1.054-5.34-2.143-8-3.25v-70.235zM20 300l8-8v47.789c-2.691-2.318-5.358-4.671-8-7.058v-32.731zM36 284l8-8v76.945c-2.689-2.108-5.355-4.251-8-6.424v-62.521zM84 302.992c2.644 2.067 5.311 4.097 8 6.089v76.672c-2.684-1.587-5.351-3.204-8-4.847v-77.914zM164 351.108c2.653 1.18 5.321 2.327 8 3.445v68.423c-2.675-0.937-5.34-1.907-8-2.897v-68.971zM276 381.518c2.661 0.302 5.328 0.574 8 0.821v64.237c-2.671-0.211-5.338-0.442-8-0.701v-64.357zM292 382.998c2.661 0.19 5.328 0.353 8 0.489v64.070c-2.67-0.116-5.338-0.249-8-0.412v-64.147zM244 376.523c2.659 0.531 5.326 1.030 8 1.505v64.862c-2.672-0.406-5.338-0.84-8-1.295v-65.072zM260 379.363c2.66 0.415 5.326 0.807 8 1.167v64.494c-2.671-0.308-5.338-0.64-8-0.995v-64.666zM196 363.631c2.656 0.903 5.322 1.781 8 2.625v66.597c-2.673-0.716-5.339-1.463-8-2.23v-66.992zM180 357.785c2.655 1.038 5.322 2.046 8 3.024v67.436c-2.674-0.825-5.339-1.682-8-2.558v-67.902zM228 372.965c2.658 0.65 5.325 1.276 8 1.87v65.326c-2.672-0.507-5.338-1.045-8-1.601v-65.595zM212 368.682c2.657 0.774 5.324 1.517 8 2.233v65.906c-2.673-0.61-5.338-1.253-8-1.913v-66.226zM388 246.914c2.682-0.734 5.348-1.519 8-2.339v66.378c-2.656 0.645-5.323 1.253-8 1.829v-65.868zM404 241.948c2.682-0.929 5.353-1.888 8-2.906v67.592c-2.654 0.792-5.322 1.547-8 2.271v-66.957zM356 253.488c2.676-0.375 5.345-0.776 8-1.233v64.74c-2.659 0.364-5.326 0.694-8 0.991v-64.498zM340 255.226c2.676-0.206 5.342-0.461 8-0.749v64.298c-2.66 0.229-5.327 0.425-8 0.589v-64.138zM372 250.732c2.68-0.55 5.346-1.146 8-1.78v65.444c-2.658 0.502-5.324 0.969-8 1.404v-65.068zM420 235.793c2.687-1.14 5.354-2.323 8-3.555v69.165c-2.652 0.949-5.321 1.855-8 2.732v-68.342zM436 228.342c2.691-1.371 5.356-2.796 8-4.264v71.091c-2.652 1.115-5.317 2.2-8 3.242v-70.069zM516 196l8 7.999v42.564c-2.639 2.191-5.303 4.343-8 6.442v-57.005zM532 239.688v-27.688l8 8v12.374c-2.629 2.491-5.302 4.92-8 7.314zM500 182.015c0.338-0.334 0.684-0.659 1.020-0.995l6.98 6.98v71.013c-2.641 1.926-5.309 3.807-8 5.646v-82.644zM452 219.454c2.696-1.628 5.359-3.316 8-5.048v73.501c-2.65 1.292-5.316 2.547-8 3.764v-72.217zM484 196.577c2.704-2.265 5.377-4.577 8-6.962v80.346c-2.646 1.693-5.31 3.355-8 4.966v-78.35zM324 255.951c2.673-0.041 5.341-0.112 8-0.234v64.039c-2.661 0.098-5.328 0.163-8 0.195v-64zM468 208.947c2.7-1.922 5.366-3.901 8-5.934v76.533c-2.646 1.482-5.315 2.919-8 4.323v-74.922zM228 239.042c2.647 1.018 5.318 1.977 8 2.905v66.957c-2.678-0.724-5.345-1.478-8-2.271v-67.591zM148 189.615c2.623 2.385 5.296 4.697 8 6.962v78.35c-2.69-1.611-5.354-3.273-8-4.966v-80.346zM132 188l6.981-6.98c0.336 0.336 0.681 0.66 1.019 0.994v82.645c-2.692-1.839-5.359-3.72-8-5.646v-71.013zM164 203.014c2.634 2.032 5.299 4.012 8 5.934v74.922c-2.685-1.404-5.354-2.841-8-4.323v-76.533zM180 214.405c2.64 1.732 5.304 3.421 8 5.050v72.216c-2.684-1.216-5.35-2.472-8-3.764v-73.502zM116 204l8-8v57.004c-2.698-2.099-5.361-4.25-8-6.442v-42.562zM100 220l8-8v27.687c-2.698-2.393-5.371-4.823-8-7.315v-12.372zM292 254.478c2.659 0.288 5.324 0.543 8 0.749v64.139c-2.673-0.164-5.34-0.36-8-0.589v-64.299zM196 224.078c2.644 1.468 5.309 2.894 8 4.264v70.069c-2.683-1.042-5.347-2.127-8-3.242v-71.091zM308 255.717c2.659 0.122 5.327 0.193 8 0.234v64c-2.672-0.032-5.339-0.097-8-0.195v-64.039zM260 248.952c2.654 0.635 5.321 1.23 8 1.78v65.067c-2.675-0.435-5.342-0.902-8-1.404v-65.443zM276 252.255c2.655 0.458 5.324 0.859 8 1.233v64.498c-2.674-0.297-5.341-0.627-8-0.991v-64.74zM212 232.238c2.646 1.232 5.313 2.416 8 3.555v68.342c-2.679-0.877-5.347-1.784-8-2.732v-69.165zM244 244.575c2.653 0.821 5.318 1.605 8 2.339v65.868c-2.677-0.576-5.344-1.185-8-1.829v-66.378zM324 127.932c2.688-0.083 5.355-0.252 8-0.499v64.182c-2.653 0.164-5.319 0.28-8 0.335v-64.018zM356 122.838c2.703-0.793 5.373-1.666 8-2.631v66.698c-2.646 0.623-5.314 1.184-8 1.695v-65.762zM340 126.434c2.695-0.425 5.362-0.936 8-1.527v65.046c-2.65 0.389-5.316 0.73-8 1.009v-64.528zM388 108.395c2.737-1.724 5.406-3.546 8-5.466v73.373c-2.637 1.142-5.304 2.223-8 3.247v-71.154zM372 116.95c2.718-1.213 5.386-2.521 8-3.914v69.352c-2.643 0.872-5.308 1.694-8 2.452v-67.89zM404 96.5c2.224-1.938 4.382-3.948 6.467-6.033l1.533 1.533v76.48c-2.63 1.442-5.298 2.822-8 4.143v-76.123zM452 139.297v-7.297l3.701 3.701c-1.217 1.217-2.453 2.412-3.701 3.596zM436 116l8 8v22.461c-2.608 2.211-5.275 4.355-8 6.428v-36.889zM420 100l8 8v50.661c-2.621 1.79-5.288 3.519-8 5.181v-63.842zM308 127.433c2.645 0.247 5.312 0.416 8 0.499v64.018c-2.681-0.055-5.347-0.171-8-0.335v-64.182zM212 108l8-8v63.842c-2.712-1.662-5.378-3.391-8-5.181v-50.661zM292 124.906c2.638 0.592 5.304 1.103 8 1.527v64.527c-2.684-0.278-5.35-0.62-8-1.009v-65.045zM188 132v7.297c-1.249-1.184-2.485-2.379-3.701-3.596l3.701-3.701zM228 92l1.533-1.533c2.085 2.085 4.243 4.095 6.467 6.033v76.123c-2.702-1.32-5.37-2.7-8-4.142v-76.481zM196 124l8-8v36.889c-2.725-2.072-5.392-4.216-8-6.428v-22.461zM244 102.928c2.593 1.92 5.262 3.742 8 5.466v71.155c-2.696-1.024-5.363-2.105-8-3.246v-73.375zM276 120.207c2.626 0.964 5.296 1.838 8 2.631v65.763c-2.686-0.512-5.354-1.072-8-1.695v-66.699zM260 113.036c2.615 1.394 5.282 2.7 8 3.914v67.89c-2.692-0.758-5.357-1.58-8-2.452v-69.352z" horiz-adv-x="640" />
<glyph unicode="&#xe980;" d="M512 224c0 141.385-114.615 256-256 256s-256-114.615-256-256c0-110.027 69.418-203.832 166.843-240.034l-6.843-15.966h192l-6.843 15.966c97.425 36.202 166.843 130.007 166.843 240.034zM243.395 162.587c-11.404 4.894-19.395 16.218-19.395 29.413 0 17.673 14.327 32 32 32s32-14.327 32-32c0-13.195-7.989-24.522-19.393-29.417l-12.607 29.417-12.605-29.413zM269.134 161.354c29.046 6.059 50.866 31.801 50.866 62.646 0 35.347-28.653 64-64 64s-64-28.653-64-64c0-30.846 21.831-56.561 50.88-62.614l-37.312-87.061c-45.615 19.575-77.568 64.892-77.568 117.675 0 70.692 57.308 134 128 134s128-63.308 128-134c0-52.783-31.953-98.1-77.568-117.675l-37.298 87.029zM344.224-13.854l-36.962 86.243c63.223 21.369 108.738 81.173 108.738 151.611 0 88.365-71.634 160-160 160s-160-71.635-160-160c0-70.438 45.515-130.242 108.738-151.611l-36.962-86.243c-79.797 34.244-135.693 113.517-135.693 205.854 0 123.666 100.251 229.917 223.917 229.917s223.917-106.251 223.917-229.917c0-92.337-55.896-171.61-135.693-205.854z" />
<glyph unicode="&#xe981;" d="M320 320c0 35.346-28.653 64-64 64s-64-28.654-64-64c0-22.677 11.804-42.583 29.592-53.952l-81.286-298.048h39.388l8.727 32h135.158l8.728-32h39.388l-81.286 298.048c17.787 11.369 29.591 31.275 29.591 53.952zM297.397 96h-82.794l8.727 32h65.34l8.727-32zM232.058 160l23.942 87.789 23.942-87.789h-47.884zM197.148 32l8.728 32h100.249l8.727-32h-117.704zM332.174 460.737c49.926-27.079 83.826-79.949 83.826-140.737s-33.9-113.658-83.826-140.737c22.033 35.063 35.826 85.135 35.826 140.737s-13.793 105.674-35.826 140.737zM428.174 460.737c49.926-27.079 83.826-79.949 83.826-140.737s-33.9-113.658-83.826-140.737c22.033 35.063 35.826 85.135 35.826 140.737s-13.793 105.674-35.826 140.737zM179.826 179.263c-49.926 27.080-83.826 79.949-83.826 140.737s33.9 113.657 83.826 140.737c-22.034-35.063-35.826-85.135-35.826-140.737s13.792-105.674 35.826-140.737zM0 320c0 60.788 33.9 113.657 83.826 140.737-22.034-35.063-35.826-85.135-35.826-140.737s13.792-105.674 35.826-140.737c-49.926 27.080-83.826 79.949-83.826 140.737z" />
<glyph unicode="&#xe982;" d="M100.097 116.912l20.575 45.264c-44.459 38.177-72.672 94.765-72.672 157.824 0 49.114 17.122 94.298 45.696 129.922l-37.562 30.067c-36.367-45.254-56.134-101.098-56.134-159.989 0-68.38 26.628-132.668 74.98-181.020 7.957-7.956 16.352-15.31 25.117-22.068zM391.328 162.177l20.574-45.265c8.767 6.758 17.161 14.112 25.117 22.068 48.352 48.352 74.981 112.64 74.981 181.020 0 58.89-19.767 114.734-56.134 159.989l-37.562-30.067c28.574-35.624 45.696-80.808 45.696-129.922 0-63.059-28.213-119.647-72.672-157.823zM352.198 248.263l21.76-47.872c0.277 0.274 0.56 0.539 0.836 0.815 61.081 61.082 65.194 157.876 12.359 223.78l-37.471-29.995c34.146-42.593 34.985-103.247 2.516-146.728zM137.206 201.206c0.276-0.276 0.559-0.541 0.836-0.815l21.76 47.872c-32.469 43.481-31.63 104.136 2.516 146.729l-37.471 29.995c-52.835-65.905-48.722-162.699 12.359-223.781zM320 320c0 35.346-28.653 64-64 64s-64-28.654-64-64c0-18.656 7.987-35.443 20.724-47.141l-138.573-304.859h52.726l29.091 64h200.064l29.091-64h52.726l-138.573 304.859c12.737 11.698 20.724 28.485 20.724 47.141zM256 252.070l41.851-92.070h-83.701l41.85 92.070zM341.486 64h-170.973l29.091 64h112.791l29.091-64z" />
<glyph unicode="&#xe983;" d="M357.823 98.177c-6.144 0-12.284 2.343-16.972 7.029-9.371 9.373-9.371 24.567 0 33.94 46.788 46.789 46.788 122.917 0 169.706-46.787 46.788-122.917 46.788-169.705 0-22.664-22.664-35.146-52.799-35.146-84.852s12.481-62.188 35.146-84.854c9.373-9.373 9.373-24.567 0-33.94s-24.567-9.373-33.94 0c-31.731 31.732-49.206 73.92-49.206 118.794 0 44.875 17.475 87.063 49.207 118.794 65.502 65.503 172.082 65.503 237.587 0 65.503-65.503 65.503-172.085 0-237.588-4.687-4.686-10.828-7.029-16.971-7.029v0zM420.049 35.951c-6.144 0-12.284 2.343-16.972 7.029-9.372 9.371-9.372 24.566 0 33.939 81.101 81.1 81.101 213.057 0 294.156s-213.057 81.1-294.155 0c-81.101-81.099-81.101-213.059 0-294.156 9.373-9.373 9.373-24.568 0-33.939s-24.568-9.373-33.941 0c-48.353 48.353-74.981 112.64-74.981 181.020s26.628 132.667 74.98 181.020c48.352 48.353 112.64 74.98 181.020 74.98s132.666-26.628 181.020-74.98c48.35-48.353 74.98-112.64 74.98-181.020s-26.63-132.667-74.98-181.020c-4.688-4.686-10.829-7.029-16.971-7.029v0zM304 0h-16.039l0.039 168.583c19.123 11.067 32 31.731 32 55.417 0 35.347-28.654 64-64 64-35.348 0-64-28.653-64-64 0-23.686 12.876-44.35 32-55.417l-0.039-168.583h-15.961c-8.836 0-16-7.163-16-16s7.164-16 16-16h96c8.837 0 16 7.163 16 16s-7.163 16-16 16z" />
<glyph unicode="&#xe984;" d="M511.123 459.989c1.869 5.28 0.708 11.393-3.517 15.617-4.225 4.225-10.338 5.386-15.618 3.517l-0.011 0.011-175.696-62.426c-10.827 7.473-21.683 14.278-32.457 20.298-35.977 20.102-69.461 30.727-96.833 30.727-21.729 0-39.997-6.782-52.828-19.613-6.43-6.43-11.263-14.081-14.525-22.785-15.159-32.561-23.638-68.858-23.638-107.142 0-140.387 113.806-254.193 254.193-254.193 38.432 0 74.861 8.546 107.52 23.813 8.604 3.295 16.154 8.098 22.406 14.35 24.216 24.215 26.015 65.567 5.066 116.44-8.764 21.283-21.152 43.507-36.469 65.702l62.407 175.684zM385.865 197.022c-2.773-7.807 1.307-16.383 9.112-19.157 1.661-0.59 3.355-0.869 5.022-0.869 6.169 0 11.95 3.836 14.135 9.981l20.883 58.773c8.454-13.906 15.52-27.628 20.978-40.883 13.669-33.198 15.471-60.513 4.701-71.281-4.633-4.632-12.219-6.98-22.551-6.98-37.096 0-106.222 31.695-177.032 102.507-41.652 41.651-73.907 87.217-90.825 128.302-13.67 33.199-15.472 60.512-4.702 71.281 4.631 4.631 12.219 6.98 22.551 6.98 21.263 0 53.052-10.424 89.647-32.648l-58.806-20.895c-7.806-2.773-11.886-11.35-9.112-19.156 2.773-7.807 11.35-11.886 19.156-9.112l210.382 74.751-146.010-146.010c-5.858-5.858-5.858-15.355 0-21.213 2.928-2.929 6.767-4.393 10.606-4.393s7.678 1.464 10.606 4.394l146.010 146.010-74.751-210.382zM288-16v16c0 7.92-0.966 15.613-2.774 22.976-48.246 10.518-93.090 32.741-131.103 65.257-34.184-14.694-58.123-48.666-58.123-88.233v-16c0-8.837 7.163-16 16-16h160c8.837 0 16 7.163 16 16z" />
<glyph unicode="&#xe985;" d="M480 480c-17.673 0-32-14.327-32-32 0-5.608 1.446-10.876 3.981-15.459l-176.012-125.793c17.094-24.416 38.363-45.686 62.781-62.776l125.79 176.009c4.584-2.534 9.853-3.981 15.46-3.981 17.673 0 32 14.327 32 32s-14.327 32-32 32zM431.229 308.017l-19.804-27.71c19.355-25.558 34.618-51.274 44.569-75.439 13.669-33.198 15.471-60.513 4.701-71.281-4.634-4.632-12.22-6.979-22.552-6.979-37.096 0-106.222 31.694-177.032 102.506-41.651 41.651-73.906 87.217-90.824 128.302-13.67 33.199-15.472 60.512-4.702 71.281 4.631 4.631 12.219 6.98 22.551 6.98 27.728 0 73.353-17.713 124.2-56.23l27.665 19.772c-18.588 14.596-37.505 27.354-56.178 37.788-35.977 20.102-69.461 30.727-96.833 30.727-21.729 0-39.997-6.782-52.828-19.613-6.43-6.43-11.263-14.081-14.525-22.785-15.158-32.562-23.637-68.859-23.637-107.143 0-140.386 113.806-254.193 254.193-254.193 38.432 0 74.86 8.546 107.52 23.812 8.604 3.295 16.154 8.099 22.406 14.351 24.216 24.215 26.015 65.567 5.065 116.44-11.89 28.88-30.449 59.491-53.955 89.414zM288-16v16c0 7.92-0.966 15.613-2.773 22.976-48.247 10.519-93.090 32.741-131.104 65.257-34.184-14.694-58.123-48.666-58.123-88.233v-16c0-8.837 7.163-16 16-16h160c8.837 0 16 7.163 16 16z" />
<glyph unicode="&#xe986;" d="M192 224c0 35.346 28.654 64 64 64s64-28.654 64-64c0-35.346-28.654-64-64-64s-64 28.654-64 64zM332.174 364.737c49.926-27.079 83.826-79.949 83.826-140.737s-33.9-113.658-83.826-140.737c22.033 35.063 35.826 85.135 35.826 140.737s-13.793 105.674-35.826 140.737zM144 224c0-55.602 13.792-105.674 35.826-140.737-49.926 27.080-83.826 79.949-83.826 140.737s33.9 113.657 83.826 140.737c-22.034-35.063-35.826-85.135-35.826-140.737zM48 224c0-85.95 27.202-163.092 70.326-215.861-71.151 45.474-118.326 125.157-118.326 215.861s47.175 170.387 118.326 215.861c-43.124-52.769-70.326-129.911-70.326-215.861zM393.676 439.86c71.149-45.473 118.324-125.156 118.324-215.86s-47.175-170.387-118.324-215.86c43.122 52.768 70.324 129.91 70.324 215.86s-27.202 163.092-70.324 215.86z" />
</font>
</defs>
</svg>
